<?xml version="1.0" standalone="no"?>
<!DOCTYPE svg PUBLIC "-//W3C//DTD SVG 1.1//EN" "http://www.w3.org/Graphics/SVG/1.1/DTD/svg11.dtd" >
<svg xmlns="http://www.w3.org/2000/svg">
<metadata>Generated by IcoMoon</metadata>
<defs>
<font id="hosting-template" horiz-adv-x="1024">
<font-face units-per-em="1024" ascent="960" descent="-64" />
<missing-glyph horiz-adv-x="1024" />
<glyph unicode="&#x20;" horiz-adv-x="512" d="" />
<glyph unicode="&#xe900;" glyph-name="add-server" d="M662.14 598.236c-182.53 0-330.988-148.511-330.988-330.991s148.458-330.988 330.988-330.988c182.533 0 330.991 148.508 330.991 330.988s-148.458 330.991-330.991 330.991zM794.559 234.117h-99.288v-99.288h-66.209v99.288h-99.285v66.206h99.285v99.288h66.209v-99.288h99.288v-66.206zM328.738 52.109h-48.7v66.209h14.154c-6.5 16.040-11.795 32.656-16.146 49.642h-277.887v-198.572c0-18.295 14.835-33.078 33.078-33.078h409.832c-45.658 30.298-84.505 69.824-114.331 115.852v-0.053zM229.346 52.109h-96.141v66.209h96.141v-66.209zM352.588 515.516h-89.063v66.209h156.898c25.581 19.71 53.468 36.588 83.456 49.642h-503.72v-165.494h318.513c10.119 17.402 21.336 34.022 33.866 49.642h0.050zM212.833 515.516h-96.141v66.209h96.141v-66.209zM264.941 267.248c0 46.496 8.44 90.897 23.17 132.416h-287.952v-165.494h266.459c-0.891 10.957-1.677 21.91-1.677 33.078zM229.346 283.812h-96.141v66.209h96.141v-66.209zM695.218 896.15c0 18.295-14.836 33.078-33.078 33.078h-628.903c-18.295 0-33.078-14.783-33.078-33.078v-198.573h695.109v198.573h-0.050zM212.781 780.297h-96.141v66.208h96.141v-66.208zM578.737 780.297h-315.264v66.208h315.264v-66.208z" />
<glyph unicode="&#xe901;" glyph-name="approve-server" horiz-adv-x="1056" d="M339.066 55.472h-50.221v68.278h14.596c-6.703 16.544-12.163 33.68-16.65 51.194h-286.571v-204.778c0-18.867 15.299-34.112 34.111-34.112h422.639c-47.085 31.248-87.146 72.010-117.904 119.472v-0.054zM236.568 55.472h-99.146v68.278h99.146v-68.278zM363.606 533.36h-91.846v68.278h161.801c26.381 20.326 55.139 37.731 86.064 51.194h-519.462v-170.666h328.466c10.435 17.946 22.003 35.085 34.925 51.194h0.051zM219.484 533.36h-99.145v68.278h99.145v-68.278zM273.275 277.331c0 47.952 8.703 93.741 23.894 136.557h-296.95v-170.669h274.786c-0.919 11.299-1.73 22.598-1.73 34.112zM236.568 294.416h-99.146v68.275h99.146v-68.275zM716.998 925.889c0 18.867-15.299 34.111-34.112 34.111h-648.556c-18.867 0-34.111-15.245-34.111-34.111v-204.779h716.834v204.779h-0.054zM219.485 806.416h-99.145v68.277h99.145v-68.277zM596.877 806.416h-325.116v68.277h325.116v-68.277zM682.88 618.666c-188.237 0-341.334-153.152-341.334-341.334s153.098-341.331 341.334-341.331c188.237 0 341.334 153.149 341.334 341.331s-153.098 341.334-341.334 341.334zM670.771 181.917c-6.435-6.65-15.245-10.378-24.49-10.378s-18.109 3.728-24.49 10.378l-89.578 92.387 49.034 47.52 65.034-67.088 138.285 142.557 48.979-47.52-162.774-167.856z" />
<glyph unicode="&#xe902;" glyph-name="cable-usb" d="M331.131 911.356c0 18.294-14.836 33.076-33.076 33.076h-82.77v-99.281h-66.204v99.281h-82.77c-18.294 0-33.077-14.835-33.077-33.076v-165.486h297.896v165.486zM360.749 466.268c2.306 4.611 3.51 9.644 3.51 14.783v198.561h-364.099v-198.561c0-5.139 1.205-10.221 3.512-14.783l42.25-84.499h272.63l42.248 84.499h-0.050zM248.415 547.254h-132.41v66.206h132.41v-66.206zM298.054 315.619h-231.691v-66.206h231.691v66.206zM728.309-15.357c0-18.295 14.836-33.075 33.078-33.075h165.485c18.295 0 33.075 14.832 33.075 33.075v132.409h-231.691v-132.409h0.053zM695.181 315.619v-132.413h297.897v132.413c0 36.535-29.618 66.203-66.206 66.203h-165.485c-36.535 0-66.206-29.615-66.206-66.203zM893.744 249.412h-99.281v66.206h99.281v-66.206zM811.027 812.075v-364.1h66.206v364.1c0 73.020-59.392 132.41-132.409 132.41h-148.924c-73.017 0-132.409-59.39-132.409-132.41v-728.15c0-36.482-29.668-66.203-66.203-66.203h-115.847c-36.483 0-66.205 29.668-66.205 66.203v99.281h-66.205v-99.281c0-73.017 59.391-132.409 132.41-132.409h115.847c73.017 0 132.409 59.392 132.409 132.409v728.15c0 36.484 29.668 66.205 66.203 66.205h148.924c36.482 0 66.203-29.669 66.203-66.205z" />
<glyph unicode="&#xe903;" glyph-name="check-box" d="M504.072 266.818c-19.819 0-38.483 9.249-50.374 25.27l-188.945 252.036c-20.81 27.912-15.195 67.386 12.552 88.196 27.912 20.975 67.386 15.195 88.196-12.552l138.57-184.815 327.68 436.852c20.81 27.747 60.286 33.528 88.198 12.552 27.912-20.81 33.528-60.284 12.552-88.196l-378.054-504.073c-11.892-15.855-30.556-25.27-50.376-25.27v0zM756.108-48.145h-504.072c-138.9 0-252.036 112.97-252.036 252.036v504.072c0 138.9 112.97 252.036 252.036 252.036h252.036c34.849 0 62.928-28.243 62.928-62.926s-28.244-62.927-62.928-62.927h-252.036c-69.533 0-126.018-56.485-126.018-126.018v-504.072c0-69.533 56.485-126.018 126.018-126.018h504.072c69.533 0 126.018 56.485 126.018 126.018v252.036c0 34.849 28.243 62.926 62.926 62.926s62.926-28.243 62.926-62.926v-252.036c0-138.901-112.97-252.036-252.036-252.036l0.165-0.165z" />
<glyph unicode="&#xe904;" glyph-name="cloud-computing" d="M132.464 333.489h728.149c73.021 0 132.409 59.389 132.409 132.409 0 67.41-50.635 123.184-115.845 131.361 0 0.366-281.33 0-281.33 0v67.254h263.509c-17.247 29.826-45.763 52.314-80.517 61.33-40.256 120.825-153.377 203.437-282.273 203.437-128.9 0-242.019-82.612-282.276-203.437-57.451-14.939-98.338-66.257-98.338-127.535v-1.049c-65.209-8.176-115.845-63.95-115.845-131.361 0-73.021 59.391-132.409 132.41-132.409h-0.052zM496.562-63.69c54.831 0 99.281 44.451 99.281 99.281s-44.451 99.281-99.281 99.281c-54.834 0-99.281-44.451-99.281-99.281s44.448-99.281 99.281-99.281zM662.053 35.592c0-11.32-1.154-22.382-3.357-33.075h334.33v66.206h-334.33c2.203-10.696 3.357-21.755 3.357-33.078v-0.053zM0.053 68.67v-66.206h334.326c-2.2 10.693-3.354 21.752-3.354 33.075s1.154 22.385 3.354 33.078l-334.326 0.053zM496.559 201.079c11.323 0 22.385-1.154 33.078-3.354v69.558h-66.206v-69.558c10.693 2.2 21.755 3.354 33.075 3.354h0.053z" />
<glyph unicode="&#xe905;" glyph-name="cloud-hosting" d="M132.524 333.458h728.189c73.024 0 132.416 59.392 132.416 132.416 0 67.413-50.638 123.19-115.852 131.37 0 0.366-281.346 0-281.346 0v67.255h263.522c-17.247 29.828-45.763 52.317-80.517 61.333-40.262 120.832-153.386 203.448-282.292 203.448-128.903 0-242.030-82.616-282.289-203.448-57.454-14.94-98.343-66.261-98.343-127.543v-1.046c-65.213-8.18-115.852-63.957-115.852-131.37 0-73.024 59.394-132.416 132.417-132.416h-0.052zM529.725 162.562v104.687h-66.209v-104.687c-47.703-14.364-82.773-58.135-82.773-110.452 0-63.848 52.004-115.852 115.852-115.852 63.851 0 115.852 52.004 115.852 115.852 0 52.317-35.070 96.088-82.773 110.452h0.053zM893.846 201.039c-29.618 0-55.988-13.315-74.178-33.969l-58.188 23.276v76.902h-66.209v-99.288c0-13.523 8.232-25.74 20.812-30.717l78.895-31.558c-0.053-1.313-0.419-2.569-0.419-3.932 0-54.781 44.56-99.288 99.288-99.288s99.285 44.56 99.285 99.288c0 54.728-44.556 99.285-99.285 99.285zM231.863 190.346l-58.188-23.276c-18.19 20.654-44.558 33.969-74.176 33.969-54.781 0-99.287-44.556-99.287-99.285s44.558-99.288 99.287-99.288c54.728 0 99.286 44.56 99.286 99.288 0 1.362-0.367 2.566-0.42 3.932l78.895 31.558c12.581 5.030 20.811 17.194 20.811 30.717v99.288h-66.208v-76.902z" />
<glyph unicode="&#xe906;" glyph-name="coding" d="M794.546 891.956v-146.055h146.106l-146.106 146.055zM761.465 679.69c-18.295 0-33.078 14.783-33.078 33.080v231.715h-430.3c-18.296 0-33.080-14.783-33.080-33.080v-264.796h430.351c18.299 0 33.081-14.836 33.081-33.079v-529.644c0-18.295-14.836-33.081-33.081-33.081h-430.351v-66.212c0-18.295 14.836-33.078 33.080-33.078h662.015c18.295 0 33.078 14.783 33.078 33.078v695.148l-231.716-0.052zM893.837 50.753h-66.212v82.78h66.212v-82.78zM893.837 183.178h-66.212v82.78h66.212v-82.78zM662.122 150.1v397.219c0 18.295-14.836 33.078-33.078 33.078h-595.805c-18.296 0-33.079-14.783-33.079-33.078v-397.219c0-18.299 14.836-33.081 33.079-33.081h595.805c18.295 0 33.078 14.783 33.078 33.081zM239.004 301.028l-43.092-50.275-84.927 72.819c-7.339 6.29-11.534 15.466-11.534 25.11 0 9.647 4.194 18.82 11.534 25.113l84.927 72.816 43.092-50.275-55.622-47.706 55.622-47.6zM334.522 225.798l-64.221 16.043 57.456 229.724 64.22-16.043-57.456-229.724zM551.297 323.572l-84.927-72.819-43.095 50.275 55.622 47.653-55.622 47.706 43.095 50.275 84.927-72.816c7.339-6.293 11.534-15.466 11.534-25.113 0-9.644-4.195-18.82-11.534-25.11v-0.053z" />
<glyph unicode="&#xe907;" glyph-name="connection" d="M597.325 97.069c-1.389 240.318-195.938 434.867-436.256 436.256-0.356 0.006-0.712 0.009-1.069 0.009l-0.445-0.002-1.079 0.002v-0.015c-40.534-0.813-73.143-33.924-73.143-74.652s32.609-73.839 73.143-74.652v-0.015c161.584 0 289.524-130.989 289.524-292.572l0.137 0.002c2.362-39.108 34.827-70.097 74.53-70.097 40.727 0 73.839 32.608 74.652 73.143h0.015c0 0.358 0 0.719-0.002 1.077 0.002 0.149 0.002 0.297 0.002 0.446 0 0.356-0.002 0.713-0.009 1.069zM426.682 801.524c0.813 40.534 33.924 73.143 74.652 73.143s73.839-32.609 74.652-73.143h0.015c0-161.584 127.94-289.524 289.523-289.524v-0.015c40.535-0.813 73.143-33.924 73.143-74.652s-32.608-73.839-73.143-74.652v-0.015l-1.077 0.002-0.446-0.002c-0.356 0-0.713 0.002-1.069 0.009-240.318 1.389-434.867 195.938-436.256 436.256-0.006 0.356-0.009 0.712-0.009 1.069 0 0.148 0 0.297 0.002 0.445-0.002 0.359-0.002 0.719-0.002 1.079h0.015z" />
<glyph unicode="&#xe908;" glyph-name="cpu" d="M719.943 845.193c0 18.296-14.836 33.080-33.081 33.080h-16.564v66.212h-66.212v-66.212h-16.567c-18.295 0-33.078-14.836-33.078-33.080v-16.566h165.503v16.566zM438.579 845.193c0 18.296-14.836 33.080-33.078 33.080h-16.567v66.212h-66.212v-66.212h-16.566c-18.296 0-33.080-14.836-33.080-33.080v-16.566h165.504v16.566zM554.44 50.806c0-18.295 14.836-33.078 33.078-33.078h16.567v-66.212h66.212v66.212h16.564c18.299 0 33.081 14.836 33.081 33.078v16.567h-165.503v-16.567zM273.076 50.806c0-18.295 14.836-33.078 33.080-33.078h16.566v-66.212h66.212v66.212h16.567c18.295 0 33.078 14.836 33.078 33.078v16.567h-165.504v-16.567zM926.813 356.966c0 18.295-14.836 33.078-33.081 33.078h-16.564v-165.503h16.564c18.299 0 33.081 14.836 33.081 33.081v16.564h66.212v66.212h-66.212v16.567zM926.813 621.76v16.567c0 18.296-14.836 33.080-33.081 33.080h-16.564v-165.505h16.564c18.299 0 33.081 14.839 33.081 33.081v16.564h66.212v66.212h-66.212zM66.212 356.966v-16.567h-66.212v-66.212h66.212v-16.564c0-18.299 14.836-33.081 33.080-33.081h16.566v165.503h-16.566c-18.296 0-33.080-14.836-33.080-33.078zM66.212 638.327v-16.567h-66.212v-66.212h66.212v-16.564c0-18.295 14.836-33.081 33.080-33.081h16.566v165.505h-16.566c-18.296 0-33.080-14.836-33.080-33.080zM248.28 133.533h496.512c36.538 0 66.209 29.622 66.209 66.212v496.511c0 36.54-29.618 66.212-66.209 66.212h-496.512c-36.54 0-66.212-29.62-66.212-66.212v-496.511c0-36.541 29.62-66.212 66.212-66.212zM281.36 563.833c0 54.781 44.561 99.291 99.292 99.291h231.716c54.784 0 99.291-44.56 99.291-99.291v-231.716c0-54.784-44.56-99.294-99.291-99.294h-231.716c-54.784 0-99.292 44.563-99.292 99.294v231.716zM380.655 299.036h231.716c18.243 0 33.081 14.836 33.081 33.078v231.716c0 18.246-14.839 33.081-33.081 33.081h-231.716c-18.243 0-33.078-14.836-33.078-33.081v-231.716c0-18.243 14.836-33.078 33.078-33.078zM397.222 547.319h198.582v-66.212h-198.582v66.212zM397.222 414.894h198.582v-66.212h-198.582v66.212z" />
<glyph unicode="&#xe909;" glyph-name="database" horiz-adv-x="683" d="M628.904 929.28h-595.773c-18.295 0-33.078-14.783-33.078-33.078v-231.704c0-18.296 14.835-33.079 33.078-33.079h595.773c18.295 0 33.078 14.783 33.078 33.079v231.704c0 18.295-14.836 33.078-33.078 33.078zM233.277 747.22h-99.286v66.208h99.286v-66.208zM527.99 747.22h-231.702v66.208h231.702v-66.208zM494.76 456.229l29.618 59.237-95.828 47.914c-10.274 5.083-22.435 4.611-32.188-1.468-9.75-6.029-15.673-16.673-15.673-28.151v-201.877h66.209v148.353l47.914-23.955-0.053-0.053zM248.268 331.832c6.029 0 12.11 1.623 17.404 4.928 9.75 6.026 15.674 16.669 15.674 28.148v201.877h-66.209v-148.353l-47.913 23.955-29.618-59.234 95.827-47.914c4.665-2.309 9.75-3.513 14.783-3.513l0.052 0.106zM99.34-30.611c0-18.295 14.835-33.078 33.078-33.078h397.198c18.295 0 33.078 14.783 33.078 33.078v66.209h-463.406v-66.209h0.052zM132.417 101.804h397.199v132.419c0 18.292-14.836 33.075-33.078 33.075h-330.99c-18.295 0-33.078-14.783-33.078-33.075v-132.419h-0.053z" />
<glyph unicode="&#xe90a;" glyph-name="download" d="M877.276 612.448v1.046c0 61.282-40.941 112.603-98.341 127.543-40.262 120.832-153.386 203.448-282.292 203.448-128.903 0-242.030-82.616-282.289-203.448-57.454-14.94-98.343-66.261-98.343-127.543v-1.046c-65.213-8.18-115.852-63.957-115.852-131.37 0-63.851 45.45-117.319 105.682-129.691 32.763 186.2 195.322 328.264 390.802 328.264 195.482 0 358.040-142.064 390.805-328.264 60.233 12.372 105.68 65.79 105.68 129.691 0 67.413-50.638 123.19-115.852 131.37zM628.432 705.652l-8.18 32.082c-6.184 24.271-27.992 41.256-52.997 41.256h-33.078v66.208h33.078c55.305 0 103.48-37.482 117.161-91.161l8.18-32.082-64.164-16.303zM496.64 613.494c-182.53 0-330.988-148.458-330.988-330.988 0-182.533 148.459-330.991 330.988-330.991 182.533 0 330.991 148.511 330.991 330.991 0 182.477-148.458 330.988-330.991 330.988zM520.021 126.706c-6.448-6.445-14.941-9.697-23.381-9.697-8.437 0-16.93 3.252-23.378 9.697l-122.719 122.722 46.812 46.812 66.209-66.209v217.969h66.206v-217.969l66.209 66.209 46.812-46.812-122.771-122.722z" />
<glyph unicode="&#xe90b;" glyph-name="engagement" d="M256 21.333c0 141.385 114.615 256 256 256v170.667c-235.642 0-426.667-191.025-426.667-426.667h170.667zM768 874.667c0-141.385-114.615-256-256-256v-170.667c235.642 0 426.667 191.025 426.667 426.667h-170.667zM682.667 21.333c0 141.385 114.615 256 256 256v170.667c-235.642 0-426.667-191.025-426.667-426.667h170.667zM341.333 874.667c0-141.385-114.615-256-256-256v-170.667c235.642 0 426.667 191.025 426.667 426.667h-170.667z" />
<glyph unicode="&#xe90c;" glyph-name="group" d="M618.667 768c0-58.91-47.756-106.667-106.667-106.667s-106.667 47.756-106.667 106.667c0 58.91 47.756 106.667 106.667 106.667s106.667-47.756 106.667-106.667zM832 341.333c-58.91 0-106.667 47.756-106.667 106.667s47.756 106.667 106.667 106.667c58.91 0 106.667-47.756 106.667-106.667s-47.756-106.667-106.667-106.667zM618.667 128c0-58.91-47.756-106.667-106.667-106.667s-106.667 47.756-106.667 106.667c0 58.91 47.756 106.667 106.667 106.667s106.667-47.756 106.667-106.667zM192 341.333c-58.91 0-106.667 47.756-106.667 106.667s47.756 106.667 106.667 106.667c58.91 0 106.667-47.756 106.667-106.667s-47.756-106.667-106.667-106.667z" />
<glyph unicode="&#xe90d;" glyph-name="hosting" horiz-adv-x="683" d="M97.029 535.301h468.101c53.465 0 96.92 42.406 96.92 94.562 0 9.908-1.781 19.344-4.717 28.36h-210.41v66.205h139.646c-5.033 35.487-30.664 65.366-65.157 76.689-29.355 76.374-104.786 128.111-190.334 128.111s-161.030-51.737-190.332-128.111c-35.278-11.585-61.434-42.512-65.576-79.1-42.931-9.698-75.011-47.335-75.011-92.101 0-52.156 43.508-94.562 96.922-94.562l-0.052-0.053zM628.975 234.102h-595.74c-18.294 0-33.076-14.783-33.076-33.078v-231.691c0-18.295 14.835-33.075 33.076-33.075h595.74c18.295 0 33.075 14.78 33.075 33.075v231.691c0 18.295-14.832 33.078-33.075 33.078zM233.371 52.050h-99.281v66.203h99.281v-66.203zM528.067 52.050h-231.69v66.203h231.69v-66.203zM396.394 480.681c-9.75-6.029-15.673-16.669-15.673-28.151v-168.789h66.203v115.219l47.914-23.955 29.615 59.234-95.822 47.911c-10.221 5.083-22.435 4.611-32.185-1.468h-0.053zM167.321 394.346l-29.617-59.234 95.822-47.911c4.665-2.306 9.75-3.51 14.782-3.51 6.028 0 12.109 1.623 17.403 4.928 9.75 6.026 15.673 16.666 15.673 28.148v168.789h-66.205v-115.219l-47.911 23.955 0.052 0.053z" />
<glyph unicode="&#xe90e;" glyph-name="image" d="M877.276 612.445v1.049c0 61.282-40.941 112.603-98.341 127.543-40.262 120.832-153.386 203.448-282.292 203.448-128.903 0-242.030-82.616-282.289-203.448-57.454-14.94-98.343-66.261-98.343-127.543v-1.049c-65.212-8.176-115.851-63.953-115.851-131.367 0-61.49 42.356-112.916 99.286-127.699v127.699c0 36.538 29.618 66.209 66.208 66.209h661.98c36.538 0 66.209-29.618 66.209-66.209v-127.699c56.928 14.783 99.285 66.209 99.285 127.699 0 67.413-50.638 123.19-115.852 131.367zM628.432 705.652l-8.18 32.082c-6.184 24.271-27.992 41.256-52.997 41.256h-33.078v66.208h33.078c55.305 0 103.48-37.482 117.161-91.161l8.18-32.082-64.164-16.303zM794.5 481.078h-595.77c-18.295 0-33.078-14.836-33.078-33.078v-463.407c0-18.295 14.836-33.078 33.078-33.078h595.77c18.295 0 33.078 14.836 33.078 33.078v463.407c0 18.295-14.836 33.078-33.078 33.078zM298.016 365.227h104.214v-66.209h-104.214v66.209zM652.909 54.523l-101.171 151.707-53.732-80.623c-5.61-8.44-14.836-13.84-24.902-14.625-10.116-0.788-20.024 3.091-26.944 10.535l-30.301 32.815-79.261-100.386-51.95 40.994 103.271 130.793c5.976 7.599 14.994 12.161 24.691 12.58 10.013 0.524 19.028-3.513 25.581-10.588l28.098-30.407 57.977 86.969c12.269 18.401 42.778 18.401 55.097 0l128.695-193.018-55.15-36.746z" />
<glyph unicode="&#xe90f;" glyph-name="international" d="M386.386 490.667h251.225c-10.598 120.045-54.221 249.353-125.615 341.333-71.39-91.98-115.011-221.288-125.61-341.333zM637.611 405.333h-251.225c10.598-120.047 54.22-249.353 125.61-341.333 71.394 91.981 115.017 221.286 125.615 341.333zM300.765 490.667c10.342 131.211 56.189 268.426 132.088 376.673-184.171-34.545-326.626-187.42-345.416-376.673h213.327zM591.142 867.34c184.171-34.545 326.626-187.42 345.417-376.673h-213.329c-10.342 131.211-56.188 268.426-132.087 376.673zM300.765 405.333h-213.327c18.79-189.252 161.245-342.127 345.416-376.674-75.899 108.25-121.746 245.461-132.088 376.674zM591.142 28.659c75.9 108.25 121.745 245.461 132.087 376.674h213.329c-18.79-189.252-161.246-342.127-345.417-376.674z" />
<glyph unicode="&#xe910;" glyph-name="local-network" d="M264.955 366.611h463.432v-33.081h66.212v66.212c0 18.299-14.836 33.081-33.081 33.081h-231.716v66.212h-66.212v-66.212h-231.714c-18.296 0-33.080-14.836-33.080-33.081v-66.212h66.212v33.081h-0.052zM298.034 631.405h82.779v-33.078h-82.779v-66.212h397.218v66.212h-82.776v33.078h82.776c18.299 0 33.081 14.836 33.081 33.080v231.715c0 18.296-14.836 33.080-33.081 33.080h-397.218c-18.296 0-33.080-14.836-33.080-33.080v-231.715c0-18.295 14.836-33.080 33.080-33.080zM546.316 598.326h-99.291v33.078h99.291v-33.078zM0.106-30.608c0-18.299 14.836-33.081 33.080-33.081h397.22c18.295 0 33.078 14.783 33.078 33.081v66.209h-463.431v-66.209h0.052zM430.455 234.238c0 18.295-14.836 33.078-33.081 33.078h-331.006c-18.296 0-33.080-14.783-33.080-33.078v-132.425h397.22v132.425h-0.053zM529.749 35.601v-66.209c0-18.299 14.836-33.081 33.081-33.081h397.219c18.295 0 33.078 14.783 33.078 33.081v66.209h-463.379zM562.825 234.238v-132.425h397.222v132.425c0 18.295-14.839 33.078-33.081 33.078h-331.006c-18.295 0-33.081-14.783-33.081-33.078h-0.053z" />
<glyph unicode="&#xe911;" glyph-name="location-pin" horiz-adv-x="767" d="M343.974-41.702c-290.122 420.59-343.974 463.756-343.974 618.329 0 211.732 171.641 383.373 383.373 383.373s383.373-171.641 383.373-383.373c0-154.574-53.851-197.739-343.974-618.329-19.037-27.503-59.76-27.501-78.798 0zM383.373 416.888c88.222 0 159.74 71.518 159.74 159.74s-71.518 159.74-159.74 159.74c-88.222 0-159.74-71.518-159.74-159.74s71.518-159.74 159.74-159.74z" />
<glyph unicode="&#xe912;" glyph-name="personal-computer" d="M529.746 83.925h231.691c18.295 0 33.075 14.783 33.075 33.078v66.203h-794.353v-66.203c0-18.295 14.834-33.078 33.076-33.078h231.692v-66.203h-264.768v-66.206h992.916v66.206h-463.382v66.203h0.053zM331.183 83.925h132.409v-66.203h-132.409v66.203zM794.515 580.385c0 18.292-14.836 33.075-33.078 33.075h-728.149c-18.294 0-33.076-14.783-33.076-33.075v-330.972h794.356v330.972h-0.053zM182.21 447.972h-82.77v66.206h82.77v-66.206zM314.619 447.972h-82.769v66.206h82.769v-66.206zM993.131 183.206h-132.413v-99.281h132.413v99.281zM960.003 944.485h-330.972c-18.292 0-33.075-14.782-33.075-33.076v-231.692h231.691c18.292 0 33.075-14.834 33.075-33.076v-397.176h132.409v661.944c0 18.294-14.832 33.076-33.075 33.076h-0.053zM827.594 745.922h-66.206v99.282h66.206v-99.282z" />
<glyph unicode="&#xe913;" glyph-name="play" horiz-adv-x="895" d="M846.709 531.724l-702.266 415.173c-57.059 33.717-144.443 0.998-144.443-82.396v-830.15c0-74.815 81.2-119.904 144.443-82.396l702.266 414.974c62.646 36.91 62.844 127.884 0 164.795z" />
<glyph unicode="&#xe914;" glyph-name="plus" d="M426.667 405.323c0 70.692-57.308 128-128 128h-128c-47.128 0-85.333-38.204-85.333-85.333 0-47.127 38.205-85.333 85.333-85.333h256v42.667zM597.333 490.656c0-70.692 57.308-128 128-128h128c47.127 0 85.333 38.206 85.333 85.333 0 47.13-38.206 85.333-85.333 85.333h-256v-42.667zM469.333 533.333c70.692 0 128 57.308 128 128v128c0 47.128-38.206 85.333-85.333 85.333s-85.333-38.205-85.333-85.333v-256h42.667zM597.333 362.667v-256c0-47.127-38.206-85.333-85.333-85.333s-85.333 38.206-85.333 85.333v128c0 70.692 57.308 128 128 128h42.667z" />
<glyph unicode="&#xe915;" glyph-name="product" d="M596.316 651.462c47.972 51.925 125.751 51.925 173.724 0l111.855-121.067c31.358-33.939 31.358-88.966 0-122.906-31.356-33.939-82.195-33.939-113.553 0l-198.718 215.085 26.692 28.887zM427.695 222.775c-47.972-51.923-125.751-51.923-173.724 0l-111.856 121.069c-31.357 33.939-31.357 88.964 0 122.903s82.196 33.939 113.554 0l198.718-215.083-26.692-28.89zM474.618 390.761c47.972 51.923 125.751 51.923 173.724 0l111.855-121.069c31.358-33.939 31.358-88.964 0-122.903-31.356-33.939-82.195-33.939-113.553 0l-198.718 215.083 26.692 28.89zM556.011 534.121l-198.718 215.083c-31.358 33.939-82.195 33.939-113.553 0-31.357-33.939-31.357-88.966 0-122.906l111.855-121.067c47.972-51.923 125.751-51.923 173.726 0l26.69 28.89z" />
<glyph unicode="&#xe916;" glyph-name="remove-server" d="M328.791 67.367h-48.7v66.209h14.154c-6.5 16.040-11.795 32.656-16.146 49.642h-277.886v-198.572c0-18.295 14.835-33.078 33.078-33.078h409.832c-45.658 30.298-84.505 69.824-114.331 115.852v-0.053zM229.399 67.367h-96.141v66.209h96.141v-66.209zM352.588 530.773h-89.063v66.209h156.898c25.581 19.71 53.468 36.588 83.456 49.642h-503.72v-165.494h318.513c10.119 17.402 21.336 34.022 33.866 49.642h0.050zM212.833 530.773h-96.141v66.209h96.141v-66.209zM264.993 282.506c0 46.496 8.44 90.897 23.17 132.416h-287.951v-165.494h266.459c-0.891 10.957-1.678 21.91-1.678 33.078zM229.399 299.070h-96.141v66.209h96.141v-66.209zM695.271 911.407c0 18.295-14.836 33.078-33.078 33.078h-628.903c-18.295 0-33.078-14.783-33.078-33.078v-198.573h695.112v198.573h-0.053zM212.834 795.555h-96.141v66.208h96.141v-66.208zM578.79 795.555h-315.264v66.208h315.264v-66.208zM662.14 613.494c-182.533 0-330.988-148.511-330.988-330.991s148.455-330.988 330.988-330.988c182.533 0 330.991 148.508 330.991 330.988s-148.458 330.991-330.991 330.991zM791.676 199.73l-46.812-46.812-82.776 82.773-82.773-82.773-46.812 46.812 82.773 82.773-82.773 82.776 46.812 46.812 82.773-82.773 82.776 82.773 46.812-46.812-82.773-82.776 82.773-82.773z" />
<glyph unicode="&#xe917;" glyph-name="router" d="M893.791 17.725h-794.397v-66.209h794.397v66.209zM959.997 348.715h-926.76c-18.295 0-33.078-14.836-33.078-33.078v-231.703c0-18.295 14.835-33.078 33.078-33.078h926.76c18.295 0 33.078 14.836 33.078 33.078v231.703c0 18.295-14.836 33.078-33.078 33.078zM233.383 166.654h-99.287v66.209h99.287v-66.209zM365.801 166.654h-99.288v66.209h99.288v-66.209zM859.139 166.654h-397.197v66.209h397.197v-66.209zM165.603 645.209v-230.34h66.208v230.34c38.425 13.682 66.208 50.115 66.208 93.205 0 54.781-44.558 99.287-99.286 99.287s-99.287-44.559-99.287-99.287c0-43.091 27.731-79.471 66.209-93.205h-0.052zM629.009 724.734c0-56.301-22.748-109.247-64.059-149.193l-23.797-23.012 46.024-47.597 23.8 23.012c54.309 52.525 84.241 122.404 84.241 196.79s-29.932 144.264-84.241 196.738l-23.8 23.013-45.974-47.599 23.8-23.013c41.308-39.893 64.059-92.891 64.059-149.139h-0.053zM506.498 724.734c0-27.312-13.318-53.365-37.432-73.338l-25.476-21.127 42.254-51.005 25.476 21.125c39.579 32.815 61.437 76.955 61.437 124.291s-21.808 91.528-61.437 124.292l-25.476 21.126-42.254-51.006 25.476-21.126c24.114-19.973 37.432-46.026 37.432-73.338v0.105zM350.493 686.834l47.597-45.974 23.012 23.799c31.98 33.13 31.98 87.020 0 120.098l-23.012 23.8-47.597-45.974 23.012-23.799c7.391-7.654 7.391-20.497 0-28.098l-23.012-23.8v-0.052z" />
<glyph unicode="&#xe918;" glyph-name="satellite" d="M937.126 936.268l-24.544 23.732-47.411-49.086 24.544-23.678c42.598-41.194 66.061-95.794 66.061-153.854s-23.462-112.662-66.061-153.855l-24.544-23.677 47.411-49.088 24.544 23.734c56.006 54.112 86.874 126.175 86.874 202.886s-30.867 148.826-86.874 202.886zM834.362 861.612l-26.275 21.786-43.571-52.547 26.272-21.786c24.922-20.597 38.602-47.465 38.602-75.63s-13.731-55.033-38.602-75.629l-26.272-21.784 43.571-52.547 26.275 21.786c40.813 33.84 63.302 79.359 63.302 128.229s-22.49 94.389-63.302 128.23v-0.108zM741.373 795.334l-23.677 24.543-49.142-47.41 23.68-24.543c7.622-7.893 7.622-21.192 0-29.084l-23.68-24.543 49.142-47.41 23.677 24.543c32.922 34.166 32.922 89.685 0 123.851v0.054zM546.166 4.278h-546.166v-68.278h546.166v68.278zM106.609 72.554h332.956l-54.006 135.098c-28.058-30.384-67.9-49.738-112.445-49.738s-84.388 19.354-112.444 49.738l-54.006-135.098h-0.054zM333.443 251.062c33.338 33.334 33.338 87.382 0 120.717-33.334 33.338-87.382 33.338-120.717 0-33.335-33.334-33.335-87.382 0-120.717s87.382-33.334 120.717 0zM477.184 707.271l28.758-28.759-115.904-47.248 52.33-52.384 107.958 44.003-43.952-107.955 52.33-52.384 47.251 115.958 28.813-28.816 48.275 48.275-157.584 157.585-48.275-48.276zM234.786 683.593c-70.602-70.601-93.037-171.369-67.521-261.216 27.571 26.326 64.71 42.707 105.741 42.707 84.712 0 153.582-68.928 153.582-153.584 0-29.789-8.918-57.411-23.622-80.982 6.65-0.486 13.245-0.973 19.894-0.973 68.115 0 136.23 25.949 188.128 77.792l3.187 3.19-376.254 376.255-3.19-3.19h0.054z" />
<glyph unicode="&#xe919;" glyph-name="search" d="M646.901 83.819l147.506-147.509 46.812 46.809-148.871 148.871c-13.523-17.56-28.672-33.705-45.394-48.224l-0.053 0.053zM877.124 597.259v1.049c0 60.177-41.674 112.229-98.338 127.431-40.203 120.878-153.377 203.542-282.273 203.542-128.9 0-242.071-82.664-282.276-203.542-56.665-15.201-98.338-67.254-98.338-127.431v-1.049c-65.209-8.124-115.845-63.95-115.845-131.361 0-61.592 42.459-113.068 99.543-127.746 2.516 180.32 149.813 326.36 330.763 326.36s330.972-148.5 330.972-330.971h99.281c73.021 0 132.409 59.389 132.409 132.409 0 67.41-50.635 123.237-115.845 131.361l-0.053-0.053zM628.292 690.461l-8.176 32.080c-6.184 24.322-27.992 41.254-52.997 41.254h-33.075v66.205h33.075c55.302 0 103.477-37.48 117.158-91.104l8.176-32.080-64.161-16.355zM430.307 598.308c-145.988 0-264.769-118.781-264.769-264.769 0-145.985 118.781-264.766 264.769-264.766 145.985 0 264.766 118.781 264.766 264.766 0 145.988-118.781 264.769-264.766 264.769zM424.488 252.553c-6.24-6.448-14.783-10.063-23.747-10.063s-17.56 3.615-23.797 10.063l-76.218 78.628 47.542 46.077 52.419-54.098 111.6 115.113 47.545-46.077-135.345-139.643z" />
<glyph unicode="&#xe91a;" glyph-name="server" d="M0 465.085h1024v204.779h-1024v-204.779zM476.266 601.638h409.613v-68.275h-409.613v68.275zM274.732 601.638h102.388v-68.275h-102.388v68.275zM138.177 601.638h102.389v-68.275h-102.389v68.275zM1024.003 55.472h-342.957v-68.275h342.957v68.275zM341.334 55.472h-341.334v-68.275h341.334v68.275zM0 960v-221.861h1024v221.861h-1024zM240.566 814.958h-102.389v68.277h102.389v-68.277zM377.12 814.958h-102.388v68.277h102.388v-68.277zM885.878 814.958h-409.613v68.277h409.613v-68.277zM0 174.944h477.888v-68.278h-68.278v-170.666h204.781v170.666h-68.278v68.278h477.888v221.859h-1024v-221.859zM476.266 319.987h409.613v-68.278h-409.613v68.278zM274.732 319.987h102.388v-68.278h-102.388v68.278zM138.177 319.987h102.389v-68.278h-102.389v68.278z" />
<glyph unicode="&#xe91b;" glyph-name="setting" d="M627.973 465.877h64.276c-9.7 57.356-43.933 106.322-91.642 135.786 15.307-39.216 24.483-86.767 27.313-135.786h0.053zM496.64 631.389c-21.129 0-57.983-62.281-64.801-165.513h129.548c-6.814 103.232-43.619 165.513-64.801 165.513h0.053zM365.314 465.877c2.83 49.019 12.006 96.569 27.313 135.786-47.709-29.463-81.942-78.429-91.641-135.786h64.329zM431.839 399.661c6.817-103.229 43.622-165.513 64.801-165.513 21.181 0 57.986 62.284 64.801 165.513h-129.601zM627.973 399.661c-2.83-49.019-12.006-96.569-27.313-135.786 47.709 29.463 81.942 78.429 91.642 135.786h-64.329zM960.047 548.606h-83.779c-7.444 24.43-17.25 48.075-29.308 70.672l59.296 59.296c12.949 12.95 12.949 33.868 0 46.818l-117.018 117.017c-12.949 12.949-33.866 12.949-46.815 0l-59.296-59.295c-22.596 12.058-46.241 21.862-70.672 29.307v83.778c0 18.297-14.836 33.081-33.081 33.081h-165.513c-18.299 0-33.081-14.837-33.081-33.081v-83.778c-24.43-7.445-48.075-17.249-70.672-29.307l-59.295 59.295c-12.425 12.425-34.392 12.425-46.818 0l-117.017-117.017c-12.949-12.95-12.949-33.868 0-46.818l59.243-59.243c-12.058-22.596-21.862-46.241-29.307-70.672h-83.779c-18.297 0-33.081-14.836-33.081-33.081v-165.513c0-18.295 14.837-33.081 33.081-33.081h83.779c7.444-24.43 17.249-48.075 29.307-70.672l-59.243-59.243c-12.949-12.949-12.949-33.866 0-46.819l117.017-117.015c12.95-12.949 33.868-12.949 46.818 0l59.243 59.243c22.596-12.058 46.241-21.864 70.672-29.308v-83.779c0-18.295 14.836-33.081 33.081-33.081h165.513c18.299 0 33.081 14.839 33.081 33.081v83.779c24.43 7.444 48.075 17.25 70.672 29.308l59.243-59.243c12.949-12.949 33.866-12.949 46.819 0l117.015 117.015c6.187 6.187 9.7 14.628 9.7 23.384 0 8.754-3.513 17.197-9.7 23.381l-59.293 59.296c12.055 22.596 21.861 46.241 29.305 70.672h83.779c18.299 0 33.081 14.836 33.081 33.081v165.513c0 18.299-14.836 33.081-33.081 33.081l0.106-0.053zM496.59 167.933c-146.010 0-264.81 118.8-264.81 264.81s118.8 264.81 264.81 264.81c146.010 0 264.81-118.8 264.81-264.81s-118.8-264.81-264.81-264.81zM365.314 399.661h-64.276c9.699-57.356 43.935-106.322 91.641-135.786-15.307 39.216-24.483 86.767-27.313 135.786h-0.053z" />
<glyph unicode="&#xe91c;" glyph-name="smartphone" d="M989.885 584.557h-102.387v204.777h-68.278v-204.777h-68.278v341.332h-68.278v-341.332h-341.331c-18.867 0-34.112-15.299-34.112-34.112v-238.944c0-18.867 15.3-34.112 34.112-34.112h648.554c18.867 0 34.112 15.245 34.112 34.112v238.944c0 18.867-15.299 34.112-34.112 34.112zM547.786 396.806h-102.39v68.278h102.39v-68.278zM885.875 396.806h-273.056v68.278h273.056v-68.278zM238.944 243.222v375.498c0 18.867 15.299 34.112 34.112 34.112h273.056v204.779c0 56.492-45.952 102.389-102.39 102.389h-341.332c-56.492 0-102.389-45.951-102.389-102.389v-716.833h546.166v68.278h-273.056c-18.867 0-34.112 15.299-34.112 34.112l-0.054 0.054zM193.912 857.611h158.34v-68.277h-158.34v68.277zM0 38.387c0-56.493 45.951-102.387 102.389-102.387h341.332c56.493 0 102.39 45.949 102.39 102.387v34.112h-546.112v-34.112z" />
<glyph unicode="&#xe91d;" glyph-name="unlock" d="M750.947 277.28h-375.501v136.554c0 75.306 61.251 136.557 136.557 136.557s136.554-61.251 136.554-136.557v-102.387h68.278v102.387c0 112.931-91.846 204.781-204.778 204.781s-204.78-91.85-204.78-204.781v-136.554h-34.112c-18.867 0-34.112-15.245-34.112-34.112v-273.056c0-18.867 15.299-34.112 34.112-34.112h477.89c18.867 0 34.112 15.245 34.112 34.112v273.056c0 18.867-15.299 34.112-34.112 34.112h-0.109zM563.197 72.502h-102.39v68.275h102.39v-68.275zM443.728 413.834v-68.278h136.554v68.278c0 37.626-30.653 68.278-68.278 68.278s-68.275-30.598-68.275-68.278zM904.528 617.584v1.082c0 63.197-42.221 116.122-101.414 131.529-41.52 124.608-158.179 209.806-291.114 209.806s-249.594-85.198-291.112-209.806c-59.25-15.407-101.416-68.332-101.416-131.529v-1.082c-67.25-8.432-119.472-65.952-119.472-135.472 0-75.306 61.25-136.554 136.555-136.554h102.389v68.275c0 150.557 122.499 273.057 273.056 273.057s273.056-122.5 273.056-273.057v-68.275h102.39c75.306 0 136.554 61.248 136.554 136.554 0 69.52-52.221 127.040-119.472 135.472zM647.853 713.704l-8.381 33.084c-6.378 25.030-28.867 42.545-54.653 42.545h-34.112v68.278h34.112c57.034 0 106.714-38.653 120.768-94.010l8.435-33.084-66.17-16.812z" />
<glyph unicode="&#xe91e;" glyph-name="upload" d="M877.276 612.448v1.046c0 61.282-40.941 112.603-98.341 127.543-40.262 120.832-153.386 203.448-282.292 203.448-128.903 0-242.030-82.616-282.289-203.448-57.454-14.94-98.343-66.261-98.343-127.543v-1.046c-65.213-8.18-115.852-63.957-115.852-131.37 0-63.851 45.449-117.319 105.682-129.691 32.763 186.2 195.323 328.264 390.802 328.264 195.482 0 358.040-142.064 390.802-328.264 60.233 12.372 105.683 65.79 105.683 129.691 0 67.413-50.638 123.19-115.852 131.37zM628.432 705.652l-8.18 32.082c-6.184 24.271-27.992 41.256-52.997 41.256h-33.078v66.208h33.078c55.305 0 103.48-37.482 117.161-91.161l8.18-32.082-64.164-16.303zM496.587 613.494c-182.53 0-330.989-148.458-330.989-330.988 0-182.533 148.459-330.991 330.989-330.991 182.533 0 330.991 148.511 330.991 330.991 0 182.477-148.458 330.988-330.991 330.988zM595.875 268.769l-66.209 66.209v-217.969h-66.206v217.969l-66.209-66.209-46.812 46.812 122.719 122.719c12.949 12.949 33.863 12.949 46.812 0l122.719-122.719-46.812-46.812z" />
<glyph unicode="&#xe91f;" glyph-name="web-hosting" d="M877.276 612.445v1.049c0 61.282-40.941 112.602-98.341 127.543-40.262 120.832-153.386 203.448-282.292 203.448-128.903 0-242.030-82.616-282.289-203.448-57.454-14.94-98.343-66.261-98.343-127.543v-1.049c-65.213-8.176-115.852-63.953-115.852-131.367 0-61.49 42.356-112.916 99.286-127.699v193.908c0 36.535 29.618 66.206 66.208 66.206h661.98c36.538 0 66.209-29.618 66.209-66.206v-193.908c56.928 14.783 99.285 66.209 99.285 127.699 0 67.413-50.638 123.19-115.852 131.367zM628.432 705.652l-8.18 32.082c-6.184 24.271-27.992 41.256-52.997 41.256h-33.078v66.209h33.078c55.305 0 103.48-37.482 117.161-91.161l8.18-32.082-64.164-16.303zM794.5 547.288h-595.77c-18.295 0-33.078-14.836-33.078-33.078v-99.285h661.979v99.285c0 18.295-14.836 33.078-33.078 33.078h-0.053zM397.306 216.297h-66.206v-66.209h66.206v66.209zM165.598-15.407c0-18.295 14.836-33.078 33.078-33.078h595.771c18.295 0 33.078 14.836 33.078 33.078v364.122h-661.98v-364.122h0.052zM728.291 100.445h-132.416v66.209h132.416v-66.209zM529.718 265.939h198.572v-66.206h-198.572v66.206zM264.937 249.375c0 18.295 14.836 33.078 33.078 33.078h132.416c18.295 0 33.078-14.836 33.078-33.078v-132.416c0-18.295-14.836-33.078-33.078-33.078h-132.416c-18.295 0-33.078 14.836-33.078 33.078v132.416z" />
<glyph unicode="&#xe920;" glyph-name="web-protection" d="M553.444 920.315c-29.094 5.767-59.134 8.912-89.907 8.912s-60.81-3.146-89.907-8.912c-22.438-57.195-41.941-134.992-54.312-230.143h288.492c-12.372 95.15-31.927 172.948-54.312 230.143h-0.053zM397.324 320.686v178.188c0 44.091 29.618 83.357 72.031 95.465l103.486 29.569h-260.602c-4.247-49.121-6.868-101.705-6.868-158.165s2.569-108.991 6.868-158.112h85.557c-0.106 4.35-0.472 8.651-0.472 13.002v0.053zM239.162 465.796c0 53.158 2.412 106.316 6.763 158.165h-217.404c-18.034-49.437-28.361-102.543-28.361-158.165s10.327-108.674 28.361-158.112h217.404c-4.351 51.849-6.763 104.954-6.763 158.112zM868.724 690.172c-52.162 93.787-135.934 167.391-236.746 206.919 18.922-60.707 33.078-131.428 42.409-206.919h194.337zM319.265 241.472c12.372-95.148 31.927-172.947 54.312-230.142 29.094-5.765 59.134-8.912 89.907-8.912 17.405 0 34.549 1.154 51.482 3.041-57.459 66.318-96.253 147.785-110.93 236.066l-84.772-0.053zM58.295 241.472c52.162-93.786 135.937-167.39 236.749-206.919-18.925 60.708-33.080 131.429-42.412 206.919h-194.337zM58.348 690.172h194.337c9.331 75.491 23.486 146.212 42.411 206.919-100.864-39.528-184.638-113.132-236.748-206.919zM969.117 530.749l-231.716 66.212c-5.924 1.731-12.266 1.731-18.19 0l-231.716-66.212c-14.209-4.034-24.011-17.036-24.011-31.822v-178.188c0-166.397 98.819-316.276 251.743-381.806 4.192-1.784 8.598-2.675 13.054-2.675s8.859 0.891 13.051 2.675c152.924 65.53 251.743 215.409 251.743 381.806v178.188c0 14.786-9.802 27.788-24.011 31.822h0.053zM722.513 219.35c-6.237-6.448-14.783-10.066-23.747-10.066s-17.563 3.618-23.8 10.066l-76.226 78.637 47.551 46.080 52.423-54.101 111.613 115.122 47.548-46.080-135.36-139.658z" />
<glyph unicode="&#xe921;" glyph-name="website" d="M264.943 498.952h-66.208v-66.209h66.208v66.209zM625.025 304.361c18.662 18.714 43.613 29.094 70.191 29.094 7.55 0 15.099-0.838 22.438-2.569l143.112-33.026v366.585h-860.606v-562.694c0-18.295 14.835-33.078 33.078-33.078h598.288l-33.026 143.165c-7.708 33.655 2.2 68.198 26.577 92.523h-0.053zM728.346 366.533h-82.773v66.209h82.773v-66.209zM397.359 565.105h330.988v-66.206h-330.988v66.206zM132.576 532.027c0 18.295 14.835 33.078 33.078 33.078h132.417c18.295 0 33.078-14.836 33.078-33.078v-132.416c0-18.295-14.836-33.078-33.078-33.078h-132.417c-18.295 0-33.078 14.836-33.078 33.078v132.416zM529.774 234.117h-397.198v66.206h397.198v-66.206zM595.984 366.533h-198.575v66.209h198.575v-66.209zM983.431 51.638l-71.348 71.345 51.163 21.963c13.16 5.663 21.178 19.084 19.921 33.342s-11.587 26.106-25.529 29.302l-254.979 58.871c-11.165 2.569-22.804-0.785-30.875-8.859-8.074-8.074-11.428-19.71-8.859-30.875l58.868-254.979c3.252-13.945 15.047-24.219 29.305-25.529 14.311-1.207 27.729 6.762 33.339 19.918l21.966 51.163 71.345-71.345c6.184-6.184 14.625-9.697 23.378-9.697 8.757 0 17.197 3.513 23.381 9.697l58.871 58.871c6.184 6.184 9.697 14.625 9.697 23.378 0 8.757-3.513 17.194-9.697 23.381l0.053 0.053zM861.448 896.149c0 18.295-14.836 33.078-33.078 33.078h-794.397c-18.295 0-33.078-14.835-33.078-33.078v-165.495h860.607v165.495h-0.053zM629.744 796.863h-82.776v66.208h82.776v-66.208zM762.16 796.863h-82.773v66.208h82.773v-66.208z" />
</font>
</defs>
</svg>
