<?xml version="1.0" standalone="no"?>
<!DOCTYPE svg PUBLIC "-//W3C//DTD SVG 1.1//EN" "http://www.w3.org/Graphics/SVG/1.1/DTD/svg11.dtd" >
<svg xmlns="http://www.w3.org/2000/svg">
<metadata>Generated by IcoMoon</metadata>
<defs>
<font id="Basic" horiz-adv-x="1024">
<font-face units-per-em="1024" ascent="960" descent="-64" />
<missing-glyph horiz-adv-x="1024" />
<glyph unicode="&#x20;" horiz-adv-x="512" d="" />
<glyph unicode="&#xe900;" glyph-name="user" d="M512 784c-96.997 0-176-75.366-176-168s78.955-168 176-168c97.045 0 176 75.366 176 168s-78.955 168-176 168zM512 532.022c-48.616 0-87.976 37.57-87.976 83.978 0 46.406 39.36 83.978 87.976 83.978 48.618 0 87.976-37.571 87.976-83.978s-39.358-83.978-87.976-83.978zM512 960c-282.658 0-512-229.341-512-512s229.342-512 512-512c282.659 0 512 229.341 512 512s-229.341 512-512 512zM512 11.971c-102.4 0-198.63 37.986-273.496 106.867 30.941 125.006 142.504 213.547 273.496 213.547 75.326 0 146.141-29.421 199.459-82.555 36.466-36.466 61.882-81.496 74.037-130.992-74.866-68.928-171.096-106.867-273.496-106.867zM851.614 190.298c-18.326 44.57-45.214 85.133-79.978 119.896-69.341 69.341-161.702 107.51-259.637 107.51-152.126 0-284.179-92.179-339.43-227.638-56.311 73.808-87.252 163.638-87.252 257.934 0 235.282 191.356 426.682 426.682 426.682s426.682-191.356 426.682-426.682c0-94.066-30.71-183.666-87.022-257.702h-0.045z" />
<glyph unicode="&#xe901;" glyph-name="calendar" d="M896.093 789.318h-42.683v128c0 23.574-19.107 42.682-42.682 42.682s-42.682-19.108-42.682-42.682v-128h-512v128c0 23.574-19.109 42.682-42.683 42.682s-42.682-19.108-42.682-42.682v-128h-42.682c-70.584 0-128-57.416-128-128v-597.318c0-70.584 57.416-128 128-128h768c70.584 0 128 57.416 128 128v597.365c0 70.584-57.416 128-128 128l0.093-0.046zM128.092 704h768.001c23.528 0 42.682-19.154 42.682-42.682v-106.683h-853.318v106.683c0 23.528 19.154 42.682 42.682 42.682h-0.046zM896.093 21.318h-768.001c-23.528 0-42.682 19.154-42.682 42.682v405.365h853.318v-405.318c0-23.528-19.154-42.682-42.682-42.682l0.046-0.046zM810.773 192h-85.318v-85.325h85.318v85.325zM298.773 192h-85.318v-85.325h85.318v85.325zM469.456 192h-85.318v-85.325h85.318v85.325zM640.091 192h-85.318v-85.325h85.318v85.325zM810.773 384.003h-85.318v-85.325h85.318v85.325zM298.773 384.003h-85.318v-85.325h85.318v85.325zM469.456 384.003h-85.318v-85.325h85.318v85.325zM640.091 384.003h-85.318v-85.325h85.318v85.325z" />
<glyph unicode="&#xe902;" glyph-name="photo" d="M896.046 810.682h-120.45l-31.539 78.78c-19.477 52.719-45.722 70.538-104.011 70.538h-256c-58.291 0-84.534-17.819-103.643-69.479l-31.954-79.839h-120.449c-70.584 0-128-57.416-128-128v-618.682c0-70.584 57.416-128 128-128h768c70.584 0 128 57.416 128 128v618.682c0 70.584-57.416 128-128 128h0.046zM938.728 64.046c0-23.528-19.154-42.682-42.682-42.682h-768c-23.528 0-42.682 19.154-42.682 42.682v618.635c0 23.528 19.154 42.683 42.682 42.683h149.317c17.451 0 33.106 10.635 39.645 26.843l43.050 107.694c2.856 7.781 4.698 11.695 5.755 13.583 2.395 0.506 7.69 1.197 18.187 1.197h256c10.544 0 15.794-0.691 18.187-1.197 1.106-1.98 2.992-6.078 6.17-14.642l42.682-106.682c6.493-16.208 22.194-26.843 39.643-26.843h149.318c23.528 0 42.682-19.154 42.682-42.683v-618.635l0.046 0.046zM512.046 640c-141.168 0-256-114.832-256-256s114.832-256 256-256c141.17 0 256 114.832 256 256s-114.83 256-256 256v0zM512.046 213.318c-94.112 0-170.682 76.57-170.682 170.682s76.57 170.682 170.682 170.682c94.114 0 170.682-76.57 170.682-170.682s-76.568-170.682-170.682-170.682z" />
<glyph unicode="&#xe903;" glyph-name="pin" horiz-adv-x="800" d="M400 960c-220.528 0-400-172.248-400-384 0-119.574 51.175-193.29 97.026-259.269l266.667-362.682c8.346-11.328 21.87-18.050 36.307-18.050 14.435 0 27.962 6.722 36.307 18.050l266.667 362.682c0.238 0.322 0.43 0.645 0.67 0.92 45.179 65.014 96.355 138.728 96.355 258.349 0 211.752-179.426 384-400 384v0zM630.024 365.491l-230.024-312.818-229.688 312.357c-43.693 62.894-81.439 117.226-81.439 211.016 0 164.696 139.567 298.682 311.127 298.682 171.558 0 311.126-133.986 311.126-298.682 0-93.514-37.554-147.798-81.102-210.51v-0.045zM400 768c-110.262 0-199.998-86.147-199.998-192s89.736-192 199.998-192c110.264 0 200.002 86.147 200.002 192s-89.69 192-200.002 192v0zM400 469.318c-61.246 0-111.126 47.838-111.126 106.682s49.832 106.682 111.126 106.682c61.296 0 111.128-47.838 111.128-106.682s-49.832-106.682-111.128-106.682z" />
<glyph unicode="&#xe904;" glyph-name="volume" d="M488.174 859.616c-14.595 7.183-32 5.433-44.845-4.466l-265.842-204.475h-49.494c-70.581 0-127.994-57.416-127.994-127.998v-170.68c0-70.584 57.413-127.998 127.994-127.998h50.691l266.349-184.402c7.274-5.019 15.746-7.597 24.264-7.597 6.768 0 13.581 1.611 19.797 4.88 14.043 7.368 22.883 21.917 22.883 37.802v746.627c0 16.253-9.254 31.079-23.803 38.261v0.046zM426.662 156.131l-210.362 145.632c-7.136 4.926-15.608 7.597-24.264 7.597h-63.996c-23.527 0-42.68 19.155-42.68 42.682v170.68c0 23.528 19.153 42.682 42.68 42.682h63.996c9.394 0 18.555 3.131 26.014 8.84l208.658 160.505v-578.571l-0.046-0.046zM725.331 437.314c0 76.614-41.39 147.658-108.058 185.413-20.488 11.603-46.547 4.421-58.15-16.115-11.602-20.488-4.419-46.549 16.115-58.15 39.917-22.608 64.733-65.197 64.733-111.147s-24.816-88.541-64.733-111.147c-20.488-11.603-27.717-37.662-16.115-58.152 7.827-13.859 22.285-21.64 37.155-21.64 7.136 0 14.365 1.795 20.995 5.571 66.621 37.709 108.058 108.752 108.058 185.414v-0.046zM729.659 727.424c-18.83 14.181-45.581 10.406-59.715-8.426-14.181-18.831-10.405-45.583 8.426-59.717 70.536-53.088 111.005-133.984 111.005-221.926s-40.469-168.792-111.005-221.925c-18.83-14.181-22.606-40.931-8.426-59.717 8.379-11.142 21.179-16.99 34.117-16.99 8.933 0 17.957 2.81 25.645 8.565 90.794 68.326 144.984 176.803 144.984 290.067 0 113.266-54.19 221.742-144.984 290.069h-0.046zM837.626 832.679c-18.186 15.010-45.074 12.432-60.083-5.709-15.010-18.187-12.432-45.076 5.709-60.086 98.758-81.588 155.389-201.712 155.389-329.573s-56.63-247.986-155.389-329.573c-18.186-15.010-20.718-41.899-5.709-60.085 8.426-10.222 20.626-15.47 32.918-15.47 9.578 0 19.2 3.176 27.165 9.76 118.418 97.842 186.374 241.955 186.374 395.323 0 153.366-67.91 297.48-186.374 395.321v0.092z" />
<glyph unicode="&#xe905;" glyph-name="laptop" d="M194.301 151.243h635.304c71.874 0 130.349 58.104 130.349 129.522v461.715c0 71.417-58.475 129.52-130.349 129.52h-635.304c-71.873 0-130.348-58.103-130.348-129.52v-461.715c0-71.418 58.475-129.522 130.348-129.522zM149.317 742.434c0 24.66 20.168 44.699 44.984 44.699h635.304c24.818 0 44.984-20.039 44.984-44.699v-461.716c0-24.659-20.166-44.698-44.984-44.698h-635.304c-24.816 0-44.984 20.038-44.984 44.698v461.716zM981.318 108.832h-938.636c-23.574 0-42.682-18.987-42.682-42.414s19.108-42.414 42.682-42.414h938.636c23.573 0 42.682 18.989 42.682 42.414 0 23.427-19.109 42.414-42.682 42.414z" />
<glyph unicode="&#xe906;" glyph-name="mobile" horiz-adv-x="768" d="M635.344 960h-502.688c-73.129 0-132.656-56.219-132.656-125.283v-773.433c0-69.064 59.527-125.283 132.656-125.283h502.688c73.128 0 132.656 56.219 132.656 125.283v773.433c0 69.065-59.528 125.283-132.656 125.283zM677.661 61.283c0-22.008-18.965-39.965-42.317-39.965h-502.688c-23.352 0-42.317 17.91-42.317 39.965v773.433c0 22.009 18.964 39.965 42.317 39.965h502.688c23.352 0 42.317-17.911 42.317-39.965v-773.433zM429.17 170.683h-90.339c-24.962 0-45.194-19.109-45.194-42.685s20.232-42.686 45.194-42.686h90.339c24.962 0 45.192 19.11 45.192 42.686s-20.23 42.685-45.192 42.685z" />
<glyph unicode="&#xe907;" glyph-name="desk" d="M886.976 872h-749.952c-75.557 0-137.024-61.080-137.024-136.161v-448.471c0-75.080 61.468-136.16 137.024-136.16h749.952c75.557 0 137.024 61.080 137.024 136.16v448.471c0 75.080-61.467 136.161-137.024 136.161zM938.635 287.414c0-28.322-23.158-51.334-51.659-51.334h-749.952c-28.501 0-51.66 23.013-51.66 51.334v448.471c0 28.321 23.16 51.335 51.66 51.335h749.952c28.501 0 51.659-23.014 51.659-51.335v-448.471zM640 108.832h-256c-23.574 0-42.682-18.989-42.682-42.416s19.107-42.416 42.682-42.416h256c23.574 0 42.682 18.989 42.682 42.416s-19.107 42.416-42.682 42.416z" />
<glyph unicode="&#xe908;" glyph-name="cancel" d="M755.522 691.526c-16.667 16.667-43.694 16.667-60.317 0l-183.158-183.16-183.16 183.16c-16.667 16.667-43.694 16.667-60.317 0-16.667-16.667-16.667-43.694 0-60.317l183.16-183.16-183.16-183.158c-16.667-16.669-16.667-43.696 0-60.317 8.334-8.334 19.246-12.478 30.158-12.478s21.826 4.144 30.158 12.478l183.16 183.16 183.158-183.16c8.334-8.334 19.246-12.478 30.158-12.478 10.914 0 21.826 4.144 30.158 12.478 16.669 16.667 16.669 43.694 0 60.317l-183.158 183.158 183.158 183.16c16.669 16.669 16.669 43.696 0 60.317v0zM896 960h-768c-70.584 0-128-57.416-128-128v-768c0-70.584 57.416-128 128-128h768c70.584 0 128 57.416 128 128v768c0 70.584-57.416 128-128 128v0zM938.682 64c0-23.528-19.154-42.682-42.682-42.682h-768c-23.528 0-42.682 19.154-42.682 42.682v768c0 23.528 19.154 42.682 42.682 42.682h768c23.528 0 42.682-19.154 42.682-42.682v-768z" />
<glyph unicode="&#xe909;" glyph-name="copy" horiz-adv-x="864" d="M734.443 832h-119.392c-26.946 75.004-99.859 128-183.029 128-83.168 0-156.082-52.996-183.027-128h-119.394c-71.468 0-129.601-57.416-129.601-128v-640c0-70.584 58.134-128 129.601-128h604.797c71.467 0 129.602 57.416 129.602 128v640c0 70.584-58.134 128-129.602 128h0.045zM432.022 874.682c34.733 0 66.014-16.76 85.874-42.682h-171.792c19.859 25.922 51.187 42.682 85.872 42.682h0.046zM777.613 64.046c0-23.528-19.392-42.682-43.214-42.682h-604.797c-23.823 0-43.215 19.154-43.215 42.682v640c0 23.528 19.393 42.682 43.215 42.682h604.797c23.822 0 43.214-19.154 43.214-42.682v-640zM604.842 618.683h-345.592c-23.869 0-43.216-19.109-43.216-42.685s19.347-42.686 43.216-42.686h345.592c23.869 0 43.216 19.11 43.216 42.686s-19.347 42.685-43.216 42.685zM604.842 426.675h-345.592c-23.869 0-43.216-19.109-43.216-42.685s19.347-42.685 43.216-42.685h345.592c23.869 0 43.216 19.109 43.216 42.685s-19.347 42.685-43.216 42.685zM432.022 234.672h-172.819c-23.869 0-43.216-19.109-43.216-42.685s19.347-42.686 43.216-42.686h172.819c23.87 0 43.218 19.11 43.218 42.686s-19.347 42.685-43.218 42.685z" />
<glyph unicode="&#xe90a;" glyph-name="check" d="M512 960c-282.336 0-512-229.664-512-512s229.664-512 512-512c282.336 0 512 229.664 512 512s-229.664 512-512 512zM512 21.365c-235.235 0-426.682 191.4-426.682 426.682 0 235.28 191.402 426.682 426.682 426.682s426.682-191.402 426.682-426.682c0-235.282-191.402-426.682-426.682-426.682zM737.842 648.838l-289.842-289.842-119.16 119.16c-16.667 16.667-43.696 16.667-60.317 0-16.667-16.667-16.667-43.694 0-60.317l149.318-149.317c8.333-8.334 19.246-12.478 30.158-12.478s21.824 4.144 30.158 12.478l320 320c16.667 16.667 16.667 43.694 0 60.315-16.669 16.669-43.696 16.669-60.317 0v0z" />
<glyph unicode="&#xe90b;" glyph-name="arrow" d="M512 960c-282.336 0-512-229.664-512-512s229.664-512 512-512c282.336 0 512 229.664 512 512s-229.664 512-512 512zM512 21.365c-235.235 0-426.682 191.4-426.682 426.682 0 235.28 191.402 426.682 426.682 426.682s426.682-191.402 426.682-426.682c0-235.282-191.402-426.682-426.682-426.682zM435.475 712.843c-16.667 16.667-43.694 16.667-60.317 0-16.667-16.667-16.667-43.696 0-60.317l204.478-204.478-204.478-204.477c-16.667-16.667-16.667-43.696 0-60.317 8.334-8.334 19.246-12.478 30.158-12.478s21.824 4.144 30.158 12.478l234.682 234.682c16.669 16.667 16.669 43.696 0 60.317l-234.682 234.59z" />
<glyph unicode="&#xe90c;" glyph-name="security" d="M896 640h-128v64c0 141.168-114.832 256-256 256s-256-114.832-256-256v-64h-128c-70.584 0-128-57.416-128-128v-448c0-70.584 57.416-128 128-128h768c70.584 0 128 57.416 128 128v448c0 70.584-57.416 128-128 128zM341.318 704c0 94.112 76.57 170.682 170.682 170.682s170.682-76.57 170.682-170.682v-64h-341.317v64h-0.046zM938.635 64c0-23.528-19.154-42.682-42.682-42.682h-768c-23.528 0-42.682 19.154-42.682 42.682v448c0 23.528 19.154 42.682 42.682 42.682h768c23.528 0 42.682-19.154 42.682-42.682v-448zM512 384c-23.574 0-42.682-19.109-42.682-42.682v-106.683c0-23.573 19.107-42.682 42.682-42.682s42.683 19.109 42.683 42.682v106.683c0 23.573-19.109 42.682-42.683 42.682z" />
<glyph unicode="&#xe90d;" glyph-name="time" d="M512 960c-282.29 0-512-229.664-512-512s229.664-512 512-512c282.338 0 512 229.664 512 512s-229.662 512-512 512zM512 21.365c-235.28 0-426.682 191.4-426.682 426.682 0 235.28 191.402 426.682 426.682 426.682 235.282 0 426.682-191.402 426.682-426.682 0-235.282-191.4-426.682-426.682-426.682zM533.318 789.368c-23.574 0-42.683-19.107-42.683-42.682v-302.32l-158.158-158.158c-16.667-16.667-16.667-43.694 0-60.317 8.334-8.333 19.246-12.477 30.158-12.477s21.826 4.144 30.158 12.477l170.683 170.683c8.011 8.011 12.477 18.832 12.477 30.158v320c0 23.573-19.107 42.682-42.682 42.682l0.046-0.046z" />
<glyph unicode="&#xe90e;" glyph-name="message" d="M896 960h-768c-70.584 0-128-57.416-128-128v-554.681c0-70.584 57.416-128 128-128h250.936l94.894-189.744c7.229-14.458 22.008-23.574 38.17-23.574 16.16 0 30.941 9.117 38.17 23.574l94.894 189.744h250.936c70.584 0 128 57.416 128 128v554.681c0 70.584-57.416 128-128 128zM938.682 277.365c0-23.53-19.154-42.683-42.682-42.683h-277.318c-16.16 0-30.941-9.117-38.17-23.574l-68.512-137.024-68.512 137.024c-7.229 14.458-22.010 23.574-38.17 23.574h-277.318c-23.528 0-42.682 19.154-42.682 42.683v554.681c0 23.528 19.154 42.682 42.682 42.682h768c23.528 0 42.682-19.154 42.682-42.682v-554.681zM682.637 789.363h-341.317c-23.574 0-42.682-19.109-42.682-42.685s19.107-42.686 42.682-42.686h341.317c23.574 0 42.682 19.11 42.682 42.686s-19.107 42.685-42.682 42.685zM682.637 597.363h-341.317c-23.574 0-42.682-19.109-42.682-42.685s19.107-42.686 42.682-42.686h341.317c23.574 0 42.682 19.11 42.682 42.686s-19.107 42.685-42.682 42.685zM682.637 405.371h-341.317c-23.574 0-42.682-19.11-42.682-42.686s19.107-42.685 42.682-42.685h341.317c23.574 0 42.682 19.109 42.682 42.685s-19.107 42.686-42.682 42.686z" />
<glyph unicode="&#xe90f;" glyph-name="notification" horiz-adv-x="864" d="M843.394 234.16l-71.328 98.619c-10.536 14.547-16.085 31.675-16.085 49.584v249.813c0 175.551-135.475 319.38-308.387 327.437-89.603 4.282-174.544-27.118-239.205-88.075-64.754-61.003-100.372-143.23-100.372-231.536v-257.64c0-17.909-5.548-35.037-16.084-49.584l-71.328-98.619c-13.473-18.646-20.606-40.562-20.606-63.443 0-60.174 49.556-109.16 110.488-109.16h643.022c60.933 0 110.488 48.941 110.488 109.16 0 22.882-7.133 44.797-20.605 63.398v0.045zM753.464 146.915h-643.022c-13.287 0-24.102 10.68-24.102 23.802 0 4.973 1.538 9.762 4.476 13.813l71.328 98.618c21.072 29.144 32.168 63.397 32.168 99.216v257.64c0 64.779 26.154 125.091 73.611 169.796 44.662 42.081 102.47 64.87 163.915 64.87 3.869 0 7.738-0.092 11.608-0.276 126.758-5.893 226.058-112.291 226.058-242.217v-249.813c0-35.773 11.142-70.072 32.168-99.17l71.328-98.618c2.936-4.053 4.475-8.84 4.475-13.813 0-13.122-10.816-23.802-24.102-23.802l0.093-0.046zM539.947 21.366h-215.987c-23.87 0-43.218-19.107-43.218-42.682s19.347-42.683 43.218-42.683h215.987c23.87 0 43.216 19.109 43.216 42.683s-19.346 42.682-43.216 42.682z" />
<glyph unicode="&#xe910;" glyph-name="more" d="M896 960h-768c-70.584 0-128-57.495-128-128.177v-769.060c0-70.682 57.416-128.178 128-128.178h768c70.584 0 128 57.496 128 128.178v769.060c0 70.682-57.416 128.177-128 128.177zM938.683 62.763c0-23.562-19.155-42.742-42.683-42.742h-768c-23.528 0-42.682 19.181-42.682 42.742v769.060c0 23.56 19.154 42.741 42.682 42.741h768c23.528 0 42.683-19.18 42.683-42.741v-769.060zM512.045 404.542c23.573 0 42.683 19.138 42.683 42.746 0 23.606-19.11 42.744-42.683 42.744s-42.682-19.138-42.682-42.744c0-23.608 19.109-42.746 42.682-42.746zM725.363 404.542c23.573 0 42.682 19.138 42.682 42.746 0 23.606-19.109 42.744-42.682 42.744s-42.682-19.138-42.682-42.744c0-23.608 19.109-42.746 42.682-42.746zM308.243 405.429c22.942 5.422 37.15 28.443 31.736 51.419-5.416 22.976-28.405 37.205-51.347 31.782s-37.15-28.443-31.734-51.419c5.414-22.976 28.403-37.205 51.346-31.782z" />
<glyph unicode="&#xe911;" glyph-name="cart" d="M981.138 638.806h-150.41l-179.184 217.656c-14.917 18.119-41.803 20.773-60.035 5.948-18.23-14.825-20.947-41.546-5.984-59.664l134.986-163.94h-417.205l134.986 163.94c14.917 18.119 12.246 44.84-5.984 59.664-18.232 14.825-45.118 12.171-60.035-5.948l-179.184-217.656h-150.41c-23.572 0-42.678-18.987-42.678-42.414s19.106-42.414 42.678-42.414h27.347l64.547-421.906c9.576-62.637 62.798-108.072 126.514-108.072h501.826c63.718 0 116.939 45.435 126.515 108.072l64.547 421.906h27.347c23.573 0 42.678 18.989 42.678 42.414 0 23.427-19.106 42.414-42.678 42.414h-0.184zM804.946 144.838c-3.176-20.864-20.947-36.010-42.171-36.010h-501.826c-21.269 0-38.995 15.146-42.171 36.010l-62.567 409.184h711.303l-62.568-409.184zM511.861 448.003c-23.571 0-42.678-18.987-42.678-42.414v-148.382c0-23.427 19.107-42.414 42.678-42.414 23.573 0 42.678 18.987 42.678 42.414v148.382c0 23.427-19.106 42.414-42.678 42.414zM682.53 448.003c-23.573 0-42.678-18.987-42.678-42.414v-148.382c0-23.427 19.106-42.414 42.678-42.414s42.677 18.987 42.677 42.414v148.382c0 23.427-19.106 42.414-42.677 42.414zM341.24 448.003c-23.571 0-42.677-18.987-42.677-42.414v-148.382c0-23.427 19.106-42.414 42.677-42.414 23.573 0 42.678 18.987 42.678 42.414v148.382c0 23.427-19.106 42.414-42.678 42.414z" />
<glyph unicode="&#xe912;" glyph-name="trash" d="M981.366 832h-426.664v85.318c0 23.574-19.106 42.682-42.678 42.682s-42.68-19.108-42.68-42.682v-85.318h-426.664c-23.573 0-42.68-19.108-42.68-42.681s19.107-42.682 42.68-42.682h42.68v-682.637c0-70.584 57.413-128 127.995-128h597.29c70.581 0 127.995 57.416 127.995 128v682.637h42.68c23.573 0 42.68 19.107 42.68 42.682s-19.107 42.681-42.68 42.681h0.046zM853.371 64c0-23.528-19.152-42.682-42.68-42.682h-597.291c-23.526 0-42.68 19.154-42.68 42.682v682.637h682.605v-682.637h0.046zM469.389 597.322v-426.682c0-23.574 19.107-42.682 42.68-42.682s42.678 19.107 42.678 42.682v426.682c0 23.574-19.106 42.682-42.678 42.682s-42.68-19.107-42.68-42.682zM704.059 128.005c23.573 0 42.68 19.107 42.68 42.682v426.682c0 23.574-19.107 42.683-42.68 42.683s-42.68-19.109-42.68-42.683v-426.682c0-23.574 19.107-42.682 42.68-42.682zM320.077 640.003c-23.573 0-42.68-19.107-42.68-42.682v-426.682c0-23.574 19.107-42.682 42.68-42.682s42.68 19.107 42.68 42.682v426.682c0 23.574-19.107 42.682-42.68 42.682z" />
<glyph unicode="&#xe913;" glyph-name="zoom-in" d="M1011.605 8.84l-218.17 218.154c64.096 77.49 102.638 176.851 102.638 285.006 0 247.021-200.995 448-448.037 448s-448.037-200.979-448.037-448c0-247.022 200.995-448 448.037-448 108.21 0 207.533 38.538 285.030 102.63l218.17-218.152c8.334-8.334 19.248-12.478 30.162-12.478s21.826 4.144 30.162 12.478c16.669 16.667 16.669 43.648 0 60.317l0.045 0.045zM85.371 512c0 199.965 162.683 362.682 362.712 362.682 200.027 0 362.71-162.671 362.71-362.682s-162.683-362.682-362.71-362.682c-200.029 0-362.712 162.67-362.712 362.682zM576.093 554.637h-85.325v85.318c0 23.573-19.109 42.682-42.685 42.682s-42.686-19.109-42.686-42.682v-85.318h-85.325c-23.576 0-42.685-19.109-42.685-42.682s19.109-42.682 42.685-42.682h85.325v-85.318c0-23.574 19.11-42.683 42.686-42.683s42.685 19.109 42.685 42.683v85.318h85.325c23.576 0 42.686 19.107 42.686 42.682 0 23.573-19.11 42.682-42.686 42.682z" />
<glyph unicode="&#xe914;" glyph-name="zoom-out" d="M1011.499 8.896l-218.157 218.141c64.093 77.485 102.632 176.842 102.632 284.99 0 247.006-200.984 447.973-448.010 447.973-247.027 0-447.965-200.966-447.965-447.973 0-247.008 200.982-447.974 448.010-447.974 108.205 0 207.522 38.536 285.014 102.624l218.157-218.139c8.334-8.333 19.246-12.477 30.16-12.477 10.912 0 21.824 4.144 30.158 12.477 16.667 16.667 16.667 43.646 0 60.312v0.046zM85.32 512.027c0 199.954 162.674 362.66 362.69 362.66s362.691-162.66 362.691-362.66c0-200-162.675-362.661-362.691-362.661s-362.69 162.661-362.69 362.661zM576.013 554.71h-256.005c-23.576 0-42.683-19.107-42.683-42.682s19.107-42.683 42.683-42.683h256.005c23.574 0 42.683 19.109 42.683 42.683s-19.109 42.682-42.683 42.682v0z" />
<glyph unicode="&#xe915;" glyph-name="download" horiz-adv-x="656" d="M289.896 119.202c8.334-8.333 19.246-12.477 30.16-12.477 10.912 0 21.824 4.144 30.158 12.477l277.326 277.304c16.669 16.667 16.669 43.648 0 60.314-16.667 16.667-43.696 16.667-60.318 0l-204.898-204.882c0.138 1.381 0.414 2.67 0.414 4.098v661.285c0 23.573-19.109 42.68-42.683 42.68-23.576 0-42.683-19.107-42.683-42.68v-661.285c0-1.381 0.275-2.717 0.413-4.098l-204.898 204.882c-16.668 16.667-43.696 16.667-60.318 0-16.668-16.666-16.668-43.646 0-60.314l277.327-277.304zM597.382 21.366h-554.699c-23.575 0-42.683-19.107-42.683-42.683 0-23.574 19.108-42.682 42.683-42.682h554.699c23.576 0 42.683 19.107 42.683 42.682s-19.107 42.683-42.683 42.683z" />
<glyph unicode="&#xe916;" glyph-name="upload" horiz-adv-x="656" d="M72.844 609.877l204.903 204.885c-0.139-1.381-0.414-2.671-0.414-4.098v-661.296c0-23.574 19.109-42.682 42.683-42.682 23.576 0 42.685 19.107 42.685 42.682v661.296c0 1.381-0.277 2.716-0.414 4.098l204.902-204.885c8.334-8.334 19.246-12.478 30.158-12.478 10.914 0 21.826 4.144 30.16 12.478 16.669 16.667 16.669 43.646 0 60.314l-277.331 277.309c-16.669 16.667-43.651 16.667-60.32 0l-277.331-277.309c-16.668-16.667-16.668-43.646 0-60.314s43.651-16.667 60.32 0v0zM597.394 21.371h-554.709c-23.575 0-42.684-19.109-42.684-42.685 0-23.574 19.109-42.683 42.684-42.683h554.709c23.574 0 42.683 19.109 42.683 42.683 0 23.576-19.109 42.685-42.683 42.685z" />
<glyph unicode="&#xe917;" glyph-name="microphone" horiz-adv-x="800" d="M252.702 213.349h294.73c69.65 0 126.307 57.413 126.307 127.995v490.662c0 70.581-56.658 127.994-126.307 127.994h-294.73c-69.65 0-126.305-57.413-126.305-127.994v-490.662c0-70.582 56.655-127.995 126.305-127.995zM210.586 832.006c0 23.527 18.901 42.68 42.117 42.68h294.73c23.218 0 42.117-19.153 42.117-42.68v-490.662c0-23.528-18.899-42.68-42.117-42.68h-294.73c-23.216 0-42.117 19.152-42.117 42.68v490.662zM757.928 426.707c-23.262 0-42.118-19.107-42.118-42.68v-42.682c0-94.107-75.557-170.674-168.422-170.674h-294.73c-92.867 0-168.423 76.566-168.423 170.674v42.682c0 23.573-18.855 42.68-42.117 42.68s-42.117-19.107-42.117-42.68v-42.682c0-141.162 113.312-255.989 252.611-255.989h105.27v-106.677c0-23.574 18.856-42.68 42.118-42.68s42.117 19.106 42.117 42.68v106.677h105.27c139.299 0 252.611 114.827 252.611 255.989v42.682c0 23.573-18.854 42.68-42.117 42.68h0.046z" />
<glyph unicode="&#xe918;" glyph-name="settings" d="M1015.251 541.44c-3.821 20.49-21.778 34.578-41.806 34.578h-76.8c-6.17 18.323-13.445 36.050-22.194 53.315l54.378 54.605c0 0 0.23 0 0.23 0.23 14.090 14.274 16.621 36.925 4.696 54.19-35.637 51.611-79.792 95.765-131.406 131.401-17.267 11.925-39.874 9.392-54.194-4.696 0 0-0.077-0.076-0.23-0.23l-54.606-54.375c-17.267 8.748-34.994 16.023-53.318 22.192v76.796c0 20.903-14.918 38.168-34.762 41.805-29.883 5.755-61.422 8.748-93.238 8.748s-63.355-2.993-93.237-8.748c-19.845-3.637-34.763-20.902-34.763-41.805v-76.796c-18.325-6.17-36.051-13.444-53.318-22.192l-54.606 54.375c0 0 0 0.23-0.23 0.23-14.274 14.089-36.926 16.621-54.194 4.696-51.614-35.636-95.769-79.79-131.407-131.401-11.925-17.266-9.393-39.872 4.696-54.19 0 0 0.077-0.077 0.23-0.23l54.377-54.605c-8.748-17.266-15.977-34.992-22.193-53.315h-76.8c-20.075 0-37.985-14.088-41.807-34.578-5.755-29.88-8.748-61.418-8.748-93.418 0-31.998 2.993-63.582 8.748-93.418 3.822-20.258 21.778-34.576 41.807-34.576h76.8c6.17-18.325 13.444-36.050 22.193-53.315l-54.377-54.605c-8.104-8.104-12.57-18.97-12.57-30.296 0-8.333 2.578-16.621 7.689-24.125 35.637-51.613 79.793-95.765 131.407-131.402 7.459-5.11 16.024-7.69 24.312-7.69 11.096 0 21.778 4.467 30.066 12.8v-0.23l54.606 54.374c17.267-8.747 34.994-15.976 53.318-22.192v-76.795c0-20.075 14.090-37.984 34.579-41.806 29.882-5.755 61.421-8.747 93.421-8.747s63.586 2.992 93.421 8.747c20.49 3.822 34.579 21.778 34.579 41.806v76.795c18.325 6.17 36.051 13.445 53.318 22.192l54.606-54.374v0.23c8.334-8.333 18.97-12.8 30.066-12.8 8.334 0 16.853 2.579 24.312 7.69 51.614 35.637 95.77 79.789 131.406 131.402 5.112 7.458 7.69 15.792 7.69 24.125 0 11.326-4.466 22.192-12.57 30.296l-54.378 54.605c8.749 17.266 15.978 34.99 22.194 53.315h76.8c20.075 0 37.986 14.272 41.806 34.576 5.755 29.882 8.749 61.419 8.749 93.418s-2.994 63.584-8.749 93.418zM936.334 405.342h-71.69c-20.075 0-36.926-13.858-41.394-32.643-7.872-32.229-20.672-62.707-37.986-91.069-10.037-16.621-8.102-38.398 6.17-52.486l50.787-50.968c-18.142-22.192-38.17-42.219-60.363-60.36l-50.97 50.784c-8.334 8.333-18.97 12.384-29.883 12.384-7.872 0-15.792-1.933-22.606-6.168-28.363-17.266-59.074-30.066-91.074-37.984-18.786-4.467-32.645-21.318-32.645-41.392v-71.686c-14.090-1.474-28.362-2.117-42.682-2.117-14.318 0-28.592 0.643-42.682 2.117v71.686c0 20.074-13.859 36.925-32.645 41.392-32 7.872-62.71 20.672-91.074 37.984-6.814 4.282-14.734 6.168-22.606 6.168-10.867 0-21.549-4.051-29.883-12.384l-50.97-50.784c-22.192 18.141-42.221 38.168-60.363 60.36l50.787 50.968c14.272 14.088 16.206 35.819 6.17 52.486-17.267 28.362-30.067 58.886-37.986 91.069-4.467 18.786-21.318 32.643-41.393 32.643h-71.689c-1.473 13.859-2.348 28.178-2.348 42.68 0 14.504 0.875 28.776 2.348 42.682h71.689c20.075 0 36.926 13.858 41.393 32.642 7.872 32.229 20.672 62.709 37.986 91.070 4.282 6.814 6.17 14.733 6.17 22.605 0 10.866-4.053 21.549-12.386 29.882l-50.786 50.968c18.141 22.192 38.17 42.219 60.362 60.36l50.971-50.784c8.333-8.333 19.2-12.57 30.066-12.57 7.69 0 15.563 2.118 22.378 6.4 28.362 17.266 59.072 30.066 91.072 37.984 18.786 4.466 32.645 21.317 32.645 41.391v71.686c14.090 1.473 28.363 2.118 42.683 2.118 14.318 0 28.592-0.644 42.682-2.118v-71.686c0-20.074 13.859-36.925 32.645-41.391 32-7.874 62.71-20.672 91.074-37.984 6.814-4.282 14.733-6.4 22.376-6.4 10.867 0 21.778 4.282 30.066 12.57l50.971 50.784c22.192-18.141 42.221-38.168 60.362-60.36l-50.786-50.968c-8.334-8.333-12.386-18.97-12.386-29.882 0-7.872 1.934-15.79 6.17-22.605 17.267-28.362 30.067-58.886 37.986-91.070 4.467-18.784 21.318-32.642 41.394-32.642h71.69c1.474-13.859 2.347-28.178 2.347-42.682 0-14.502-0.874-28.774-2.347-42.68h0.184zM512.002 661.333c-117.549 0-213.318-95.766-213.318-213.309s95.77-213.309 213.318-213.309c117.547 0 213.317 95.765 213.317 213.309 0 117.542-95.77 213.309-213.317 213.309zM512.002 320.029c-70.63 0-128.002 57.368-128.002 127.995s57.371 127.994 128.002 127.994c70.629 0 127.998-57.366 127.998-127.994s-57.37-127.995-127.998-127.995z" />
<glyph unicode="&#xe919;" glyph-name="ask" d="M512 960c-282.291 0-512-229.662-512-512 0-282.336 229.662-512 512-512 282.336 0 512 229.664 512 512 0 282.338-229.664 512-512 512zM512 21.365c-235.282 0-426.682 191.402-426.682 426.682s191.4 426.682 426.682 426.682c235.28 0 426.682-191.402 426.682-426.682s-191.402-426.682-426.682-426.682zM514.486 773.024c-70.491 0-134.997-40.104-168.378-104.611-10.821-20.949-2.626-46.686 18.278-57.507 20.95-10.866 46.688-2.624 57.507 18.278 18.371 35.546 54.746 58.522 92.592 58.522 57.416 0 104.15-46.734 104.15-104.15 0-60.96-53.686-92.869-106.682-92.869-23.574 0-42.682-19.107-42.682-42.682v-149.318c0-23.574 19.107-42.682 42.682-42.682 23.573 0 42.682 19.107 42.682 42.682v110.827c87.528 17.082 149.318 86.146 149.318 173.997 0 104.517-84.997 189.514-189.514 189.514h0.045zM514.483 195.778c-22.099 0-40.146-18.050-40.146-40.15s18.046-40.149 40.146-40.149c22.099 0 40.146 18.048 40.146 40.149s-18.046 40.15-40.146 40.15z" />
<glyph unicode="&#xe91a;" glyph-name="wallet" d="M896 880h-768c-70.584 0-128-58.134-128-129.602v-604.797c0-71.467 57.416-129.602 128-129.602h768c70.584 0 128 58.134 128 129.602v604.797c0 71.468-57.416 129.602-128 129.602zM128 793.614h768c23.528 0 42.682-19.393 42.682-43.215v-108.018h-853.317v108.018c0 23.823 19.154 43.215 42.682 43.215h-0.046zM896 102.434h-768c-23.528 0-42.682 19.392-42.682 43.214v410.392h853.317v-410.392c0-23.822-19.154-43.214-42.682-43.214h0.046zM405.365 383.176h-213.318c-23.574 0-42.682-19.349-42.682-43.221 0-23.87 19.108-43.219 42.682-43.219h213.318c23.573 0 42.682 19.349 42.682 43.219 0 23.872-19.109 43.221-42.682 43.221z" />
<glyph unicode="&#xe91b;" glyph-name="save" d="M990.342 714.635l-186.89 203.88c-24.173 26.383-58.566 41.485-94.342 41.485h-581.11c-70.584 0-128-57.416-128-128v-768c0-70.584 57.416-128 128-128h768c70.584 0 128 57.416 128 128v564.122c0 32.091-11.971 62.848-33.658 86.467v0.046zM640 874.682v-255.999h-362.682v255.999h362.682zM938.682 64.046c0-23.528-19.154-42.682-42.682-42.682h-768c-23.528 0-42.682 19.154-42.682 42.682v767.999c0 23.528 19.154 42.682 42.682 42.682h64v-298.682c0-23.574 19.107-42.682 42.682-42.682h448c23.574 0 42.683 19.107 42.683 42.682v295.367c5.755-2.348 11.003-5.894 15.24-10.544l186.89-203.88c7.229-7.872 11.187-18.093 11.187-28.821v-564.122zM533.363 362.683h-298.682c-23.574 0-42.682-19.109-42.682-42.685s19.107-42.686 42.682-42.686h298.682c23.574 0 42.683 19.11 42.683 42.686s-19.109 42.685-42.683 42.685v0zM533.363 213.312h-298.682c-23.574 0-42.682-19.109-42.682-42.685s19.107-42.686 42.682-42.686h298.682c23.574 0 42.683 19.11 42.683 42.686s-19.109 42.685-42.683 42.685v0z" />
<glyph unicode="&#xe91c;" glyph-name="share" d="M981.32 490.637c-23.573 0-42.68-19.109-42.68-42.683v-384c0-23.528-19.154-42.682-42.68-42.682h-767.966c-23.527 0-42.68 19.154-42.68 42.682v768c0 23.528 19.153 42.682 42.68 42.682h383.983c23.573 0 42.68 19.108 42.68 42.682s-19.107 42.682-42.68 42.682h-383.983c-70.581 0-127.994-57.416-127.994-128v-768c0-70.584 57.413-128 127.994-128h767.966c70.581 0 127.994 57.416 127.994 128v384c0 23.574-19.107 42.682-42.68 42.682l0.046-0.045zM981.32 959.953h-298.669c-23.573 0-42.68-19.108-42.68-42.682s19.107-42.682 42.68-42.682h195.674l-396.459-396.477c-16.666-16.669-16.666-43.65 0-60.317 8.334-8.334 19.246-12.478 30.158-12.478s21.822 4.144 30.155 12.478l396.461 396.478v-195.684c0-23.573 19.107-42.682 42.68-42.682s42.68 19.109 42.68 42.682v298.682c0 23.574-19.107 42.682-42.68 42.682v0z" />
<glyph unicode="&#xe91d;" glyph-name="bookmark" horiz-adv-x="784" d="M640.043 959.954h-512.035c-70.589 0-128.009-57.415-128.009-127.998v-853.304c0-17.266 10.406-32.829 26.338-39.413 15.978-6.584 34.305-2.947 46.507 9.254l311.18 311.155 311.181-311.155c8.149-8.149 19.062-12.477 30.16-12.477 5.48 0 11.051 1.059 16.347 3.269 15.931 6.584 26.338 22.147 26.338 39.413v853.304c0 70.583-57.419 127.998-128.008 127.998v-0.046zM682.728 81.648l-268.496 268.474c-8.334 8.334-19.248 12.477-30.162 12.477-10.912 0-21.824-4.142-30.158-12.477l-268.496-268.474v750.308c0 23.528 19.155 42.681 42.685 42.681h512.033c23.53 0 42.685-19.154 42.685-42.681v-750.308h-0.091zM554.718 789.269h-341.341c-23.574 0-42.685-19.109-42.685-42.685 0-23.574 19.11-42.685 42.685-42.685h341.341c23.576 0 42.685 19.11 42.685 42.685s-19.109 42.685-42.685 42.685z" />
<glyph unicode="&#xe91e;" glyph-name="print" d="M896.040 704h-64.003v128c0 70.584-57.418 128-128.005 128h-384.018c-70.587 0-128.006-57.416-128.006-128v-128h-64.002c-70.587 0-128.006-57.416-128.006-128v-256c0-70.584 57.419-128 128.006-128h21.318v-128c0-70.584 57.418-128 128.005-128h469.341c70.587 0 128.005 57.416 128.005 128v128h21.318c70.587 0 128.006 57.416 128.006 128v256c0 70.584-57.419 128-128.006 128h0.046zM277.33 832c0 23.528 19.155 42.682 42.685 42.682h384.018c23.53 0 42.683-19.154 42.683-42.682v-128h-469.339v128h-0.046zM789.352 64c0-23.528-19.154-42.682-42.682-42.682h-469.341c-23.528 0-42.683 19.154-42.683 42.682v320h554.706v-320zM938.678 320c0-23.528-19.155-42.683-42.685-42.683h-21.318v149.32c0 23.574-19.109 42.682-42.685 42.682h-640.029c-23.574 0-42.682-19.107-42.682-42.682v-149.32h-21.32c-23.529 0-42.684 19.155-42.684 42.683v256c0 23.528 19.155 42.683 42.684 42.683h768.034c23.53 0 42.685-19.155 42.685-42.683v-256zM341.334 85.304h341.333c23.574 0 42.683 19.11 42.683 42.686s-19.109 42.685-42.683 42.685h-341.333c-23.574 0-42.685-19.109-42.685-42.685s19.11-42.686 42.685-42.686zM341.334 234.675h341.333c23.574 0 42.683 19.11 42.683 42.686s-19.109 42.685-42.683 42.685h-341.333c-23.574 0-42.685-19.109-42.685-42.685s19.11-42.686 42.685-42.686z" />
<glyph unicode="&#xe91f;" glyph-name="folder" d="M896 773.373h-362.682c-7.275 0-15.61 12.937-27.397 32.596-17.68 29.465-44.43 74.031-100.603 74.031h-277.318c-66.993 0.046-128-60.956-128-127.943v-597.269c0-65.79 62.204-127.99 128-127.99h768c65.795 0 128 62.2 128 127.99v490.595c0 65.79-62.205 127.99-128 127.99v0zM938.682 154.741c0-19.152-23.528-42.678-42.682-42.678h-768c-19.154 0-42.682 23.526-42.682 42.678v597.316c0 20.349 22.331 42.678 42.682 42.678h277.318c7.275 0 15.608-12.937 27.395-32.596 17.68-29.465 44.432-74.032 100.558-74.032h362.682c19.154 0 42.683-23.526 42.683-42.678v-490.642l0.045-0.046zM789.318 304.098h-234.682c-23.574 0-42.682-19.107-42.682-42.682s19.107-42.682 42.682-42.682h234.682c23.574 0 42.683 19.107 42.683 42.682s-19.109 42.682-42.683 42.682z" />
<glyph unicode="&#xe920;" glyph-name="home" d="M968.794 554.019l-384.229 378.41c-37.986 36.821-107.189 36.776-145.405-0.227l-384-378.184c-27.442-27.027-55.16-79.219-55.16-134.768v-358.595c0-68.744 57.416-124.656 128-124.656h768c70.584 0 128 55.912 128 124.656v358.595c0 55.549-27.718 107.696-55.16 134.768h-0.046zM426.774 20.072l0.966 336.149 190.894-1.090v-335.059h-191.861zM938.635 60.701c0-22.4-19.154-40.629-42.682-40.629h-192v335.059c0 46.933-38.768 85.115-86.422 85.115h-189.79c-47.654 0-86.422-38.182-86.422-85.115v-335.059h-213.318c-23.528 0-42.682 18.229-42.682 40.629v358.55c0 28.568 15.333 60.717 30.159 75.318l383.723 377.913c2.395 2.358 7.69 3.492 12.938 3.492 5.25 0 10.085-1.088 12.294-3.22l384-378.185c14.826-14.602 30.158-46.797 30.158-75.318v-358.595l0.045 0.045z" />
<glyph unicode="&#xe921;" glyph-name="zoom" d="M1011.546 8.84l-218.158 218.154c64.094 77.49 102.632 176.851 102.632 285.006 0 247.021-200.982 448-448.010 448s-448.010-200.979-448.010-448c0-247.021 200.982-448 448.010-448 108.205 0 207.522 38.538 285.014 102.63l218.157-218.152c8.334-8.334 19.246-12.478 30.158-12.478 10.914 0 21.826 4.144 30.16 12.478 16.667 16.667 16.667 43.694 0 60.315l0.046 0.046zM85.366 512c0 199.965 162.674 362.682 362.69 362.682s362.69-162.671 362.69-362.682c0-200.011-162.674-362.682-362.69-362.682s-362.69 162.67-362.69 362.682v0z" />
<glyph unicode="&#xe922;" glyph-name="like" d="M935.714 809.284c-112.234 108.6-295.942 104.283-409.458-9.569l-14.234-14.287-14.234 14.287c-113.514 113.852-297.181 118.17-409.458 9.569-56.227-54.389-87.611-127.428-88.319-205.717-0.707-78.291 29.263-151.907 83.943-206.741l337.008-350.059c24.091-25.013 56.403-38.766 91.016-38.766 34.611 0 66.966 13.754 91.014 38.766l336.522 349.57c55.166 55.368 85.179 128.939 84.472 207.275-0.707 78.29-32.091 151.372-88.318 205.717l0.045-0.044zM881.256 454.197l-337.010-350.059c-17.019-17.669-47.386-17.669-64.405 0l-337.538 350.592c-39.43 39.568-60.868 92.133-60.382 148.080 0.53 55.902 22.942 108.11 63.123 147.011 38.679 37.387 89.29 55.903 140.612 55.903 55.43 0 111.614-21.631 154.315-64.448l43.142-43.307c16.002-16.022 41.859-16.022 57.818 0l43.142 43.307c82.219 82.474 214.477 86.257 294.883 8.546 40.181-38.856 62.635-91.108 63.122-147.011 0.531-55.902-20.952-108.512-60.867-148.57l0.045-0.043z" />
<glyph unicode="&#xe923;" glyph-name="email" d="M896 864h-768c-70.584 0-128-55.981-128-124.802v-582.396c0-68.821 57.416-124.802 128-124.802h768c70.584 0 128 55.981 128 124.802v582.396c0 68.821-57.416 124.802-128 124.802v0zM878.32 780.813l-366.32-357.169-366.319 357.169h732.639zM896 115.232h-768c-23.528 0-42.682 18.675-42.682 41.614v565.157l396.477-386.572c8.334-8.126 19.246-12.166 30.158-12.166s21.826 4.040 30.158 12.166l396.478 386.572v-565.157c0-22.939-19.155-41.614-42.683-41.614h0.093z" />
<glyph unicode="&#xe924;" glyph-name="video" d="M1002.496 719.747c-13.354 7.597-29.698 7.459-42.914-0.368l-191.549-113.588v98.21c0 70.584-57.418 128-128.005 128h-512.023c-70.587 0-128.006-57.416-128.006-128v-512c0-70.584 57.419-128 128.006-128h512.023c70.587 0 128.005 57.416 128.005 128v96.368l191.824-111.885c13.216-7.69 29.515-7.781 42.731-0.138 13.261 7.597 21.411 21.733 21.411 37.019v469.317c0 15.332-8.243 29.468-21.55 37.065h0.046zM938.725 287.632l-191.826 111.885c-13.214 7.69-29.469 7.781-42.73 0.138-13.261-7.597-21.411-21.733-21.411-37.019v-170.682c0-23.528-19.155-42.682-42.683-42.682h-512.023c-23.529 0-42.684 19.154-42.684 42.682v512c0 23.528 19.155 42.682 42.684 42.682h512.023c23.528 0 42.683-19.154 42.683-42.682v-173.122c0-15.333 8.242-29.469 21.549-37.066 13.307-7.55 29.653-7.459 42.915 0.37l191.547 113.587v-320.138l-0.045 0.046z" />
<glyph unicode="&#xe925;" glyph-name="sign-in" horiz-adv-x="848" d="M793.736 828.446l-175.832 123.848c-12.949 9.116-29.832 10.221-43.878 2.901-14-7.32-22.83-21.915-22.83-37.845v-106.676h-254.39c-70.141 0-127.195-57.412-127.195-127.993v-191.987h-127.196c-23.426 0-42.414-19.107-42.414-42.68s18.988-42.678 42.414-42.678h127.196v-191.989c0-70.581 57.054-127.992 127.195-127.992h254.39v-106.675c0-15.885 8.784-30.478 22.83-37.845 6.178-3.224 12.858-4.835 19.584-4.835 8.555 0 17.066 2.579 24.294 7.69l175.832 123.848c33.995 23.941 54.264 63.122 54.264 104.834v551.102c0 41.714-20.269 80.94-54.264 104.834v0.138zM296.805 170.714c-23.381 0-42.414 19.154-42.414 42.68v191.987h130.856l-54.813-55.155c-16.563-16.667-16.563-43.693 0-60.314 8.282-8.333 19.125-12.477 29.968-12.477 10.845 0 21.688 4.144 29.97 12.477l127.195 127.992c16.563 16.667 16.563 43.693 0 60.314l-127.195 127.992c-16.563 16.667-43.374 16.667-59.938 0s-16.563-43.693 0-60.314l54.813-55.155h-130.856v191.987c0 23.526 19.034 42.68 42.414 42.68h254.39v-554.648l-254.39-0.046zM763.173 172.462c0-13.904-6.771-26.979-18.074-34.944l-109.123-76.842v774.722l109.123-76.842c11.302-7.965 18.074-21.040 18.074-34.944v-551.15z" />
<glyph unicode="&#xe926;" glyph-name="log-out" horiz-adv-x="864" d="M808.71 828.446l-179.154 123.848c-13.192 9.116-30.395 10.221-44.707 2.901-14.266-7.32-23.262-21.915-23.262-37.845v-106.676h-172.814c-71.466 0-129.598-57.412-129.598-127.993v-191.987h-111.697l55.849 55.157c16.875 16.666 16.875 43.691 0 60.312-16.877 16.667-44.195 16.667-61.070 0l-129.599-127.992c-16.876-16.667-16.876-43.693 0-60.312l129.599-127.994c8.438-8.333 19.486-12.477 30.534-12.477 11.050 0 22.098 4.144 30.536 12.477 16.875 16.667 16.875 43.693 0 60.314l-55.849 55.157h111.697v-191.989c0-70.581 58.133-127.992 129.598-127.992h172.814v-106.675c0-15.885 8.95-30.478 23.262-37.845 6.293-3.224 13.099-4.835 19.954-4.835 8.717 0 17.389 2.579 24.754 7.69l179.154 123.848c34.638 23.941 55.29 63.122 55.29 104.834v551.102c0 41.714-20.651 80.94-55.29 104.834v0.138zM388.821 170.714c-23.822 0-43.216 19.154-43.216 42.68v191.987h151.184c23.869 0 43.214 19.107 43.214 42.68s-19.346 42.68-43.214 42.68h-151.184v191.987c0 23.526 19.394 42.68 43.216 42.68h172.813v-554.648l-172.813-0.046zM777.616 172.462c0-13.904-6.899-26.979-18.414-34.944l-111.184-76.842v774.722l111.184-76.842c11.515-7.965 18.414-21.040 18.414-34.944v-551.15z" />
<glyph unicode="&#xe927;" glyph-name="file" horiz-adv-x="848" d="M792.178 756.581l-146.283 147.2c-36.056 36.282-83.962 56.219-134.934 56.219h-383.757c-70.144 0-127.203-57.416-127.203-128v-768c0-70.584 57.058-128 127.203-128h593.596c70.144 0 127.202 57.416 127.202 128v556.8c0 51.291-19.858 99.499-55.869 135.781h0.046zM732.237 696.264c10.112-10.174 17.845-22.008 23.107-34.901h-161.702c-23.382 0-42.416 19.155-42.416 42.683v162.716c12.811-5.295 24.616-13.123 34.683-23.252l146.328-147.247zM720.89 21.365h-593.596c-23.381 0-42.416 19.154-42.416 42.682v768c0 23.528 19.034 42.682 42.416 42.682h339.191v-170.682c0-70.584 57.058-128 127.202-128h169.619v-512c0-23.528-19.035-42.682-42.416-42.682v0z" />
<glyph unicode="&#xe928;" glyph-name="video-file" d="M896 880h-768c-70.584 0-128-58.134-128-129.602v-604.795c0-71.469 57.416-129.603 128-129.603h768c70.584 0 128 58.134 128 129.603v604.795c0 71.468-57.416 129.602-128 129.602zM192 491.194h-106.682v108.018h106.682v-108.018zM85.318 404.808h106.682v-108.019h-106.682v108.019zM277.318 793.614h469.318v-691.181h-469.318v691.181zM938.637 491.194h-106.683v108.018h106.683v-108.018zM831.954 404.808h106.683v-108.019h-106.683v108.019zM938.637 750.398v-64.801h-106.683v108.018h64c23.528 0 42.683-19.394 42.683-43.216zM128 793.614h64v-108.018h-106.682v64.801c0 23.823 19.154 43.216 42.682 43.216v0zM85.318 145.603v64.8h106.682v-108.018h-64c-23.528 0-42.682 19.395-42.682 43.218v0zM895.954 102.386h-64v108.018h106.683v-64.8c0-23.822-19.155-43.218-42.683-43.218z" />
<glyph unicode="&#xe929;" glyph-name="wallet-open" d="M896 742.842h-42.682v89.77c0 41.792-20.582 80.927-55.069 104.71-34.531 23.783-78.595 29.237-117.87 14.573l-561.312-209.512c-66.394-4.582-119.068-59.71-119.068-126.934v-552.054c0-70.25 57.416-127.394 128-127.394h768c70.584 0 128 57.144 128 127.394v552.054c0 70.25-57.416 127.394-128 127.394v0zM710.354 872.388c13.354 4.995 27.627 3.162 39.275-4.858 11.65-8.065 18.371-20.759 18.371-34.919v-89.77h-404.72l347.074 129.547zM896 20.96h-768c-23.528 0-42.682 19.062-42.682 42.48v552.053c0 23.418 19.154 42.48 42.682 42.48h768c23.528 0 42.682-19.062 42.682-42.48v-148.61h-213.317c-70.586 0-128.002-57.144-128.002-127.394s57.416-127.394 128.002-127.394h213.317v-148.611c0-23.416-19.154-42.478-42.682-42.478v-0.046zM938.682 296.963h-213.317c-23.528 0-42.683 19.064-42.683 42.48 0 23.418 19.155 42.48 42.683 42.48h213.317v-84.96z" />
<glyph unicode="&#xe92a;" glyph-name="bag" horiz-adv-x="864" d="M734.445 768h-68.95c-20.421 109.076-117.248 192-233.47 192s-213.098-82.924-233.47-192h-68.951c-71.468 0-129.603-57.416-129.603-128v-576c0-70.584 58.135-128 129.603-128h604.794c71.469 0 129.603 57.416 129.603 128v576c0 70.584-58.134 128-129.603 128h0.048zM432.024 874.682c68.344 0 126.198-45.076 144.846-106.682h-289.646c18.648 61.606 76.456 106.682 144.846 106.682h-0.046zM777.614 64.046c0-23.528-19.394-42.682-43.218-42.682h-604.794c-23.823 0-43.216 19.154-43.216 42.682v576c0 23.528 19.394 42.682 43.216 42.682h64.802v-106.682c0-23.574 19.346-42.683 43.214-42.683s43.216 19.109 43.216 42.683v106.682h302.422v-106.682c0-23.574 19.347-42.683 43.216-42.683s43.216 19.109 43.216 42.683v106.682h64.802c23.822 0 43.216-19.154 43.216-42.682v-576h-0.093z" />
<glyph unicode="&#xe92b;" glyph-name="bookmark-2" horiz-adv-x="848" d="M720.797 960h-593.594c-70.144 0-127.202-57.416-127.202-128v-768c0-70.584 57.058-128 127.202-128h593.594c70.146 0 127.203 57.416 127.203 128v768c0 70.584-57.058 128-127.203 128zM402.792 874.682v-323.684l-54.816 55.16c-8.282 8.334-19.126 12.477-29.971 12.477-10.843 0-21.688-4.142-29.97-12.477l-54.816-55.16v323.684h169.573zM763.213 64.046c0-23.528-19.034-42.682-42.416-42.682h-593.594c-23.381 0-42.416 19.154-42.416 42.682v768c0 23.528 19.035 42.682 42.416 42.682h21.186v-426.682c0-17.266 10.341-32.829 26.172-39.413 15.787-6.584 34.088-2.947 46.214 9.254l97.23 97.842 97.232-97.842c8.099-8.15 18.944-12.478 29.971-12.478 5.445 0 10.982 1.059 16.198 3.27 15.83 6.584 26.171 22.146 26.171 39.413v426.681h233.219c23.382 0 42.416-19.154 42.416-42.682v-768.046z" />
<glyph unicode="&#xe92c;" glyph-name="phone" d="M984.547 216.683l-63.347 63.397c-25.445 25.446-59.275 39.453-95.286 39.453s-69.842-14.006-95.286-39.453l-28.451-28.403c-11.002-11.003-26.366-15.51-41.245-12.214-47.11 10.614-123.302 43.283-218.734 138.766-95.432 95.485-128.147 171.677-138.762 218.739-3.344 14.832 1.211 30.245 12.213 41.248l28.451 28.451c52.49 52.541 52.49 137.99 0 190.53l-63.395 63.398c-52.539 52.54-137.987 52.54-190.574 0l-19.484-19.485c-58.5-58.502-82.734-141.528-64.898-222.131 33.394-150.594 144.045-343.064 269.090-468.114 124.998-125 317.462-235.654 468.051-269.098 17.448-3.878 34.994-5.768 52.392-5.768 63.008 0 123.931 24.814 169.782 70.667l19.483 19.485c25.446 25.445 39.453 59.277 39.453 95.29s-14.006 69.843-39.453 95.242v0zM921.006 89.646l-19.483-19.485c-36.69-36.643-88.696-51.861-139.198-40.714-114.384 25.398-296.766 117.682-423.994 244.912-127.275 127.278-219.509 309.619-244.857 424.006-11.196 50.504 4.023 102.511 40.713 139.202l19.484 19.485c8.773 8.773 20.259 13.135 31.745 13.135 11.488 0 23.022-4.362 31.795-13.135l63.347-63.349c17.496-17.546 17.496-45.997 0-63.544l-28.402-28.402c-32.91-32.862-46.48-79.392-36.35-124.515 13.23-58.648 52.248-151.854 162.898-262.509 110.651-110.654 203.854-149.67 262.501-162.854 45.026-10.13 91.603 3.442 124.464 36.304l28.45 28.402c16.965 17.013 46.53 16.963 63.493 0l63.395-63.398c8.482-8.482 13.134-19.774 13.134-31.746s-4.653-23.266-13.182-31.795h0.048z" />
<glyph unicode="&#xe92d;" glyph-name="edit" d="M985.261 803.147l-118.043 118.033c-25.038 25.037-58.33 38.82-93.765 38.82-35.437 0-68.728-13.783-93.766-38.82l-614.966-614.914c-41.732-41.778-64.721-97.24-64.721-156.234v-169.824c0-24.418 19.793-44.208 44.212-44.208h169.837c59.046 0 114.562 22.986 156.246 64.715l614.965 614.914c51.653 51.696 51.653 135.774 0 187.518v0zM307.816 63.237c-25.038-25.037-58.33-38.821-93.766-38.821h-125.625v125.664c0 35.434 13.784 68.722 38.823 93.758l491.533 491.446 180.57-180.555-491.534-491.493zM922.782 678.152l-60.954-60.949-180.57 180.555 60.954 60.948c16.693 16.739 45.786 16.739 62.478 0l118.043-118.033c17.218-17.264 17.218-45.258 0-62.522h0.048z" />
<glyph unicode="&#xe92e;" glyph-name="global" d="M512 960c-282.291 0-512-229.662-512-512s229.664-512 512-512c282.338 0 512 229.662 512 512s-229.662 512-512 512zM936.518 490.682h-169.808c-8.058 139.328-55.205 268.8-130.901 365.537 161.981-49.22 283.442-192.183 300.755-365.537h-0.046zM512 33.059c-96.966 82.234-159.262 219.672-169.117 372.304h338.234c-9.853-152.632-72.195-290.070-169.117-372.304zM342.883 490.682c9.854 152.634 72.197 290.074 169.117 372.306 96.966-82.233 159.264-219.673 169.117-372.306h-338.234zM388.237 856.218c-75.696-96.783-122.89-226.255-130.901-365.537h-169.808c17.312 173.354 138.774 316.363 300.753 365.537h-0.045zM87.482 405.318h169.808c8.058-139.328 55.205-268.8 130.901-365.538-161.981 49.221-283.442 192.184-300.754 365.538h0.046zM635.765 39.781c75.694 96.784 122.888 226.256 130.899 365.538h169.808c-17.312-173.354-138.774-316.363-300.754-365.538h0.046z" />
<glyph unicode="&#xe92f;" glyph-name="image" d="M896 960h-768c-70.584 0-128-57.416-128-128v-768c0-70.584 57.416-128 128-128h768c70.584 0 128 57.416 128 128v768c0 70.584-57.416 128-128 128v0zM938.682 188.363l-227.683 227.683 44.478 44.477c25.922 25.923 41.715 25.923 67.683 0l115.477-115.475v-156.685h0.045zM128 874.682h768c23.528 0 42.682-19.154 42.682-42.682v-366.32l-55.16 55.16c-58.934 58.981-129.381 58.981-188.315 0l-44.478-44.523-193.842 193.842c-58.936 58.981-129.381 58.981-188.317 0l-183.16-183.16v345.002c0 23.528 19.154 42.682 42.682 42.682h-0.092zM896 21.365h-768c-23.528 0-42.682 19.154-42.682 42.682v302.318l243.476 243.477c25.923 25.923 41.715 25.923 67.685 0l542.158-542.158v-3.683c0-23.528-19.155-42.682-42.683-42.682l0.046 0.046z" />
</font>
</defs>
</svg>
